Rambo IV (John Rambo) — Comparison , John Rambo , Rambo IV , Screenshots — HD Compare

Tuesday, May 5, 2009

Rambo IV (John Rambo)

image host
I have been able to locate a good amount of information on 6 different Blu-Ray releases for the newest Rambo. They are (in chronological order): Czech, Russian, German, US, Australian, and French. Furthermore, there is a Blu-Ray from Holland, Finland (similar to CZ), and the UK (similar to AU) floating around. Lets get on with it.
Expand each title for disc info and screenshots by clicking the +/-
+/-USA Blu-Ray (Released 5/27/2008)
DISC INFO:

Disc Title:     RAMBO
Disc Size:      46,855,015,149 bytes
Protection:     AACS
BD-Java:        Yes

PLAYLIST REPORT:

Name:           00040.mpls
Size:           26,384,185,344 bytes
Length:         1:31:31 (h:m:s)
Total Bitrate:  38.44 Mbps
Description:    

FILES:

Name            Size            Length          Time In         Time Out        
----            ----            ------          -------         --------        
00112.M2TS      2,427,942,912   0:08:16.746     0:00:00.000     0:08:16.746     
00114.M2TS      37,730,304      0:00:08.591     0:08:16.746     0:08:25.338     
00115.M2TS      6,595,203,072   0:22:32.351     0:08:25.338     0:30:57.689     
00116.M2TS      492,232,704     0:01:50.568     0:30:57.689     0:32:48.257     
00117.M2TS      1,007,271,936   0:03:47.060     0:32:48.257     0:36:35.318     
00118.M2TS      294,795,264     0:01:06.816     0:36:35.318     0:37:42.134     
00119.M2TS      1,886,957,568   0:06:26.469     0:37:42.134     0:44:08.604     
00120.M2TS      225,196,032     0:00:50.884     0:44:08.604     0:44:59.488     
00121.M2TS      1,728,841,728   0:05:58.441     0:44:59.488     0:50:57.929     
00122.M2TS      134,639,616     0:00:29.738     0:50:57.929     0:51:27.667     
00123.M2TS      3,972,612,096   0:13:37.608     0:51:27.667     1:05:05.276     
00124.M2TS      312,422,400     0:01:10.320     1:05:05.276     1:06:15.596     
00125.M2TS      7,268,339,712   0:25:15.931     1:06:15.596     1:31:31.527     

VIDEO:

Codec               Bitrate         Description     
-----               -------         -----------     
MPEG-4 AVC Video    26820 kbps      1080p / 23.976fps / 16:9 / High Profile 4.1
MPEG-4 AVC Video    3205 kbps       480p / 23.976fps / 16:9 / High Profile 3.2

AUDIO:

Codec                           Language        Bitrate         Description     
-----                           --------        -------         -----------     
DTS-HD Master Audio             English         5516 kbps       7.1 / 48kHz / 24-bit / 5217kbps (DTS Core: 5.1 / 48kHz / 24-bit / 1536kbps)
Dolby Digital Audio             French          640 kbps        5.1 / 48kHz / 640kbps
Dolby Digital Audio             English         192 kbps        2.0 / 48kHz / 192kbps

SUBTITLES:

Codec                           Language        Bitrate         Description     
-----                           --------        -------         -----------     
Presentation Graphics           English         25.721 kbps                     
Presentation Graphics           Spanish         25.993 kbps                     

CHAPTERS:

Number          Time            Length          Avg Video Rate  Max 1-Sec Rate  Max 1-Sec Time  Max 5-Sec Rate  Max 5-Sec Time  Max 10Sec Rate  Max 10Sec Time  Avg Frame Size  Max Frame Size  Max Frame Time  
------          ----            ------          --------------  --------------  --------------  --------------  --------------  --------------  --------------  --------------  --------------  --------------  
1               0:00:00.000     0:06:51.369     26,173 kbps     38,949 kbps     00:04:46.453    34,601 kbps     00:05:07.557    34,379 kbps     00:06:05.657    136,455 bytes   430,455 bytes   00:05:02.093    
2               0:06:51.369     0:03:42.181     26,687 kbps     36,080 kbps     00:07:31.201    34,350 kbps     00:07:51.388    34,162 kbps     00:06:51.870    139,135 bytes   337,886 bytes   00:07:35.997    
3               0:10:33.550     0:05:54.103     26,078 kbps     36,180 kbps     00:12:16.778    34,151 kbps     00:12:13.650    33,184 kbps     00:12:13.650    135,957 bytes   318,454 bytes   00:10:34.467    
4               0:16:27.653     0:05:57.691     23,297 kbps     36,254 kbps     00:20:03.702    34,146 kbps     00:18:39.035    32,611 kbps     00:18:33.487    121,457 bytes   345,316 bytes   00:20:16.048    
5               0:22:25.344     0:03:51.314     30,077 kbps     37,171 kbps     00:24:07.196    34,540 kbps     00:24:06.153    34,365 kbps     00:22:28.305    156,806 bytes   384,857 bytes   00:25:29.528    
6               0:26:16.658     0:07:37.624     29,504 kbps     38,970 kbps     00:27:54.089    34,803 kbps     00:27:58.635    34,355 kbps     00:32:26.736    153,823 bytes   411,387 bytes   00:29:09.665    
7               0:33:54.282     0:06:35.937     26,235 kbps     37,964 kbps     00:37:50.143    34,431 kbps     00:37:17.986    34,173 kbps     00:37:17.861    136,777 bytes   437,216 bytes   00:37:52.896    
8               0:40:30.219     0:05:41.175     26,572 kbps     37,927 kbps     00:41:30.279    35,003 kbps     00:41:26.275    33,556 kbps     00:41:24.482    138,532 bytes   441,439 bytes   00:41:31.030    
9               0:46:11.394     0:06:54.580     26,555 kbps     36,539 kbps     00:47:48.449    34,524 kbps     00:47:29.472    34,200 kbps     00:47:27.344    138,447 bytes   412,641 bytes   00:46:59.316    
10              0:53:05.974     0:04:17.174     30,866 kbps     38,185 kbps     00:53:59.361    34,704 kbps     00:54:04.491    34,154 kbps     00:53:59.486    160,923 bytes   317,764 bytes   00:54:00.028    
11              0:57:23.148     0:04:00.991     25,450 kbps     37,939 kbps     00:58:10.487    32,417 kbps     00:59:45.624    30,510 kbps     00:59:05.667    132,684 bytes   276,678 bytes   01:01:16.464    
12              1:01:24.139     0:04:47.704     25,008 kbps     36,417 kbps     01:03:44.070    34,261 kbps     01:03:52.412    32,825 kbps     01:03:23.758    130,383 bytes   444,368 bytes   01:04:47.967    
13              1:06:11.843     0:05:15.857     30,892 kbps     39,030 kbps     01:09:33.378    34,728 kbps     01:06:29.736    34,247 kbps     01:07:00.266    161,055 bytes   500,116 bytes   01:09:33.920    
14              1:11:27.700     0:05:36.544     32,804 kbps     40,564 kbps     01:11:54.685    35,082 kbps     01:14:03.064    34,500 kbps     01:14:45.398    171,025 bytes   538,544 bytes   01:14:22.917    
15              1:17:04.244     0:02:27.523     32,543 kbps     36,198 kbps     01:19:10.746    34,520 kbps     01:17:20.386    34,246 kbps     01:17:45.536    169,665 bytes   407,507 bytes   01:17:04.787    
16              1:19:31.767     0:11:59.761     21,166 kbps     35,354 kbps     01:25:40.260    34,305 kbps     01:25:36.173    34,139 kbps     01:25:31.168    110,347 bytes   398,456 bytes   01:25:40.677    

STREAM DIAGNOSTICS:

File            PID             Type            Codec           Lang. Code      Lang. Name      Seconds         Bytes           Packets         Bitrate         
----            ---             ----            -----           ----------      ----------      -------         -----           -------         -------         
00112.M2TS      4113 (0x1011)   0x1B            AVC                                             496.75          1,672,895,417   9,098,902       26,942          
00112.M2TS      4352 (0x1100)   0x86            DTS-HD MA       eng             English         496.75          323,960,012     1,838,080       5,217           
00112.M2TS      4353 (0x1101)   0x81            AC3             fra             French          496.75          39,741,440      232,860         640             
00112.M2TS      4354 (0x1102)   0x81            AC3             eng             English         496.75          11,922,432      77,620          192             
00112.M2TS      4608 (0x1200)   0x90            PGS             eng             English         496.75          1,935,054       10,921          31              
00112.M2TS      4609 (0x1201)   0x90            PGS             spa             Spanish         496.75          2,148,184       12,095          35              
00112.M2TS      6912 (0x1B00)   0x1B            AVC                                             496.75          248,674,364     1,358,385       4,005           
00114.M2TS      4113 (0x1011)   0x1B            AVC                                             8.59            29,016,340      157,815         27,017          
00114.M2TS      4352 (0x1100)   0x86            DTS-HD MA       eng             English         8.59            5,034,584       28,740          4,688           
00114.M2TS      4353 (0x1101)   0x81            AC3             fra             French          8.59            688,640         4,035           641             
00114.M2TS      4354 (0x1102)   0x81            AC3             eng             English         8.59            206,592         1,345           192             
00114.M2TS      4608 (0x1200)   0x90            PGS             eng             English         8.59            140,795         795             131             
00114.M2TS      4609 (0x1201)   0x90            PGS             spa             Spanish         8.59            131,933         746             123             
00114.M2TS      6912 (0x1B00)   0x1B            AVC                                             8.59            488,287         2,751           455             
00115.M2TS      4113 (0x1011)   0x1B            AVC                                             1352.35         4,550,836,086   24,751,685      26,921          
00115.M2TS      4352 (0x1100)   0x86            DTS-HD MA       eng             English         1352.35         920,631,724     5,213,958       5,446           
00115.M2TS      4353 (0x1101)   0x81            AC3             fra             French          1352.35         108,188,160     633,915         640             
00115.M2TS      4354 (0x1102)   0x81            AC3             eng             English         1352.35         32,456,448      211,305         192             
00115.M2TS      4608 (0x1200)   0x90            PGS             eng             English         1352.35         5,040,253       28,696          30              
00115.M2TS      4609 (0x1201)   0x90            PGS             spa             Spanish         1352.35         5,583,039       31,783          33              
00115.M2TS      6912 (0x1B00)   0x1B            AVC                                             1352.35         628,428,719     3,433,371       3,718           
00116.M2TS      4113 (0x1011)   0x1B            AVC                                             110.57          371,115,173     2,018,479       26,851          
00116.M2TS      4352 (0x1100)   0x86            DTS-HD MA       eng             English         110.57          75,283,768      426,623         5,447           
00116.M2TS      4353 (0x1101)   0x81            AC3             fra             French          110.57          8,847,360       51,840          640             
00116.M2TS      4354 (0x1102)   0x81            AC3             eng             English         110.57          2,654,208       17,280          192             
00116.M2TS      4608 (0x1200)   0x90            PGS             eng             English         110.57          944,450         5,345           68              
00116.M2TS      4609 (0x1201)   0x90            PGS             spa             Spanish         110.57          879,808         4,969           64              
00116.M2TS      6912 (0x1B00)   0x1B            AVC                                             110.57          6,292,674       35,451          455             
00117.M2TS      4113 (0x1011)   0x1B            AVC                                             227.06          719,095,521     3,911,315       25,336          
00117.M2TS      4352 (0x1100)   0x86            DTS-HD MA       eng             English         227.06          149,751,908     848,934         5,276           
00117.M2TS      4353 (0x1101)   0x81            AC3             fra             French          227.06          18,165,760      106,440         640             
00117.M2TS      4354 (0x1102)   0x81            AC3             eng             English         227.06          5,449,728       35,480          192             
00117.M2TS      4608 (0x1200)   0x90            PGS             eng             English         227.06          2,667,062       15,057          94              
00117.M2TS      4609 (0x1201)   0x90            PGS             spa             Spanish         227.06          2,455,766       13,862          87              
00117.M2TS      6912 (0x1B00)   0x1B            AVC                                             227.06          56,069,921      307,505         1,976           
00118.M2TS      4113 (0x1011)   0x1B            AVC                                             66.82           225,379,396     1,225,813       26,985          
00118.M2TS      4352 (0x1100)   0x86            DTS-HD MA       eng             English         66.82           42,623,460      242,041         5,103           
00118.M2TS      4353 (0x1101)   0x81            AC3             fra             French          66.82           5,347,840       31,335          640             
00118.M2TS      4354 (0x1102)   0x81            AC3             eng             English         66.82           1,604,352       10,445          192             
00118.M2TS      4608 (0x1200)   0x90            PGS             eng             English         66.82           152,514         866             18              
00118.M2TS      4609 (0x1201)   0x90            PGS             spa             Spanish         66.82           213,853         1,209           26              
00118.M2TS      6912 (0x1B00)   0x1B            AVC                                             66.82           3,802,813       21,423          455             
00119.M2TS      4113 (0x1011)   0x1B            AVC                                             386.47          1,303,613,209   7,090,265       26,985          
00119.M2TS      4352 (0x1100)   0x86            DTS-HD MA       eng             English         386.47          246,377,608     1,399,345       5,100           
00119.M2TS      4353 (0x1101)   0x81            AC3             fra             French          386.47          30,919,680      181,170         640             
00119.M2TS      4354 (0x1102)   0x81            AC3             eng             English         386.47          9,275,904       60,390          192             
00119.M2TS      4608 (0x1200)   0x90            PGS             eng             English         386.47          2,705,375       15,292          56              
00119.M2TS      4609 (0x1201)   0x90            PGS             spa             Spanish         386.47          2,575,376       14,564          53              
00119.M2TS      6912 (0x1B00)   0x1B            AVC                                             386.47          192,931,382     1,053,929       3,994           
00120.M2TS      4113 (0x1011)   0x1B            AVC                                             50.88           171,660,627     933,667         26,988          
00120.M2TS      4352 (0x1100)   0x86            DTS-HD MA       eng             English         50.88           33,122,096      188,030         5,207           
00120.M2TS      4353 (0x1101)   0x81            AC3             fra             French          50.88           4,072,960       23,865          640             
00120.M2TS      4354 (0x1102)   0x81            AC3             eng             English         50.88           1,221,888       7,955           192             
00120.M2TS      4608 (0x1200)   0x90            PGS             eng             English         50.88           128,597         737             20              
00120.M2TS      4609 (0x1201)   0x90            PGS             spa             Spanish         50.88           106,359         615             17              
00120.M2TS      6912 (0x1B00)   0x1B            AVC                                             50.88           2,896,081       16,315          455             
00121.M2TS      4113 (0x1011)   0x1B            AVC                                             358.44          1,179,265,880   6,414,018       26,320          
00121.M2TS      4352 (0x1100)   0x86            DTS-HD MA       eng             English         358.44          246,127,440     1,393,689       5,493           
00121.M2TS      4353 (0x1101)   0x81            AC3             fra             French          358.44          28,677,120      168,030         640             
00121.M2TS      4354 (0x1102)   0x81            AC3             eng             English         358.44          8,603,136       56,010          192             
00121.M2TS      4608 (0x1200)   0x90            PGS             eng             English         358.44          1,515,872       8,638           34              
00121.M2TS      4609 (0x1201)   0x90            PGS             spa             Spanish         358.44          1,558,867       8,867           35              
00121.M2TS      6912 (0x1B00)   0x1B            AVC                                             358.44          172,648,302     943,120         3,853           
00122.M2TS      4113 (0x1011)   0x1B            AVC                                             29.74           100,057,824     544,200         26,917          
00122.M2TS      4352 (0x1100)   0x86            DTS-HD MA       eng             English         29.74           22,681,436      127,894         6,102           
00122.M2TS      4353 (0x1101)   0x81            AC3             fra             French          29.74           2,380,800       13,950          640             
00122.M2TS      4354 (0x1102)   0x81            AC3             eng             English         29.74           714,240         4,650           192             
00122.M2TS      4608 (0x1200)   0x90            PGS             eng             English         29.74           181             7               0               
00122.M2TS      4609 (0x1201)   0x90            PGS             spa             Spanish         29.74           181             7               0               
00122.M2TS      6912 (0x1B00)   0x1B            AVC                                             29.74           1,692,174       9,533           455             
00123.M2TS      4113 (0x1011)   0x1B            AVC                                             817.61          2,759,283,583   15,007,530      26,999          
00123.M2TS      4352 (0x1100)   0x86            DTS-HD MA       eng             English         817.61          602,115,384     3,399,885       5,891           
00123.M2TS      4353 (0x1101)   0x81            AC3             fra             French          817.61          65,410,560      383,265         640             
00123.M2TS      4354 (0x1102)   0x81            AC3             eng             English         817.61          19,623,168      127,755         192             
00123.M2TS      4608 (0x1200)   0x90            PGS             eng             English         817.61          1,251,604       7,179           12              
00123.M2TS      4609 (0x1201)   0x90            PGS             spa             Spanish         817.61          1,213,984       6,963           12              
00123.M2TS      6912 (0x1B00)   0x1B            AVC                                             817.61          316,132,876     1,730,695       3,093           
00124.M2TS      4113 (0x1011)   0x1B            AVC                                             70.32           237,084,725     1,289,473       26,972          
00124.M2TS      4352 (0x1100)   0x86            DTS-HD MA       eng             English         70.32           46,482,764      263,715         5,288           
00124.M2TS      4353 (0x1101)   0x81            AC3             fra             French          70.32           5,626,880       32,970          640             
00124.M2TS      4354 (0x1102)   0x81            AC3             eng             English         70.32           1,688,064       10,990          192             
00124.M2TS      4608 (0x1200)   0x90            PGS             eng             English         70.32           454,973         2,605           52              
00124.M2TS      4609 (0x1201)   0x90            PGS             spa             Spanish         70.32           440,981         2,523           50              
00124.M2TS      6912 (0x1B00)   0x1B            AVC                                             70.32           4,001,291       22,543          455             
00125.M2TS      4113 (0x1011)   0x1B            AVC                                             1515.93         5,090,989,619   27,689,663      26,867          
00125.M2TS      4352 (0x1100)   0x86            DTS-HD MA       eng             English         1515.93         1,072,011,708   6,062,165       5,657           
00125.M2TS      4353 (0x1101)   0x81            AC3             fra             French          1515.93         121,274,880     710,595         640             
00125.M2TS      4354 (0x1102)   0x81            AC3             eng             English         1515.93         36,382,464      236,865         192             
00125.M2TS      4608 (0x1200)   0x90            PGS             eng             English         1515.93         719,384         4,185           4               
00125.M2TS      4609 (0x1201)   0x90            PGS             spa             Spanish         1515.93         534,448         3,108           3               
00125.M2TS      6912 (0x1B00)   0x1B            AVC                                             1515.93         565,834,889     3,098,550       2,986
Review: AVSForum.com HighDefDiscNews.com DVDFuture.com BluRay.com HighDefDigest.com

Screenshots:
image host image host image host image host image host image host
+/-German Blu-Ray (Released 6/27/2008)
PLAYLIST REPORT:

Name:           00004.mpls
Size:           18,359,592,960 bytes
Length:         1:31:13 (h:m:s)
Total Bitrate:  26.84 Mbps
Description:

FILES:

Name            Size            Length          Time In         Time Out
----            ----            ------          -------         --------
00005.M2TS      18,359,592,960  1:31:13.092     0:00:00.000     1:31:13.092

VIDEO:

Codec               Bitrate         Description
-----               -------         -----------
VC-1 Video          17971 kbps      1080p / 23.976fps

AUDIO:

Codec                           Language        Bitrate         Description
-----                           --------        -------         -----------
DTS-HD Master Audio             English         2653 kbps       5.1 / 48kHz / 16-bit / 2653kbps (DTS Core: 5.1 / 48kHz / 16-bit / 1536kbps)
DTS-HD Master Audio             German          4432 kbps       5.1 / 48kHz / 24-bit / 4432kbps (DTS Core: 5.1 / 48kHz / 24-bit / 1536kbps)

SUBTITLES:

Codec                           Language        Bitrate         Description
-----                           --------        -------         -----------
Presentation Graphics           English         3 kbps          [foreign dialogue scenes only]
Presentation Graphics           German          50 kbps
Presentation Graphics           German          71 kbps         [hard-of-hearing]
Presentation Graphics           German          4 kbps          [foreign dialogue scenes only]

CHAPTERS:

Number          Time            Name
------          ----            ----
1               0:00:00.000     Chapter 1
2               0:07:15.643     Chapter 2
3               0:12:22.074     Chapter 3
4               0:16:27.403     Chapter 4
5               0:23:32.911     Chapter 5
6               0:31:46.029     Chapter 6
7               0:41:03.461     Chapter 7
8               0:49:15.661     Chapter 8
9               1:01:01.658     Chapter 9
10              1:08:30.022     Chapter 10
11              1:16:51.398     Chapter 11
12              1:19:53.413     Chapter 12
Review: DVD-Palace.de Blu-Rayler.de

Screenshots:
image host image host image host image host image host image host
+/-Australian Blu-Ray (Released 7/9/2008)
DISC INFO:

Disc Title:     RAMBO
Disc Size:      43,414,126,224 bytes
Protection:     AACS
BD-Java:        Yes
BDInfo:         0.5.2

PLAYLIST REPORT:

Name:                   00066.MPLS
Size:                   24,649,408,512 bytes
Length:                 1:31:31 (h:m:s)
Total Bitrate:          35.91 Mbps
Description:

VIDEO:

Codec                   Bitrate             Description
-----                   -------             -----------
MPEG-4 AVC Video        26820 kbps          1080p / 23.976 fps / 16:9 / High Profile 4.1
MPEG-4 AVC Video        3205 kbps           480p / 23.976 fps / 16:9 / High Profile 3.2

AUDIO:

Codec                           Language        Bitrate         Description
-----                           --------        -------         -----------
Dolby TrueHD Audio              English         1639 kbps       5.1 / 48 kHz / 1639 kbps / 16-bit (AC3 Core: 5.1 / 48 kHz / 640 kbps)
Dolby Digital Audio             English         640 kbps        5.1 / 48 kHz / 640 kbps
Dolby Digital Audio             English         192 kbps        2.0 / 48 kHz / 192 kbps / Dolby Surround

SUBTITLES:

Codec                           Language        Bitrate         Description
-----                           --------        -------         -----------
Presentation Graphics           English         41.332 kbps
Presentation Graphics           English         12.984 kbps
Presentation Graphics           English         11.779 kbps
Presentation Graphics           English         41.332 kbps
Presentation Graphics           Hindi           12.291 kbps

FILES:

Name            Time In         Length          Size            Total Bitrate
----            -------         ------          ----            -------------
00379.M2TS      0:00:00.000     0:08:16.746     2,265,581,568   36,487
00380.M2TS      0:08:16.746     0:00:08.591     35,174,400      32,751
00381.M2TS      0:08:25.338     0:22:32.351     6,165,270,528   36,471
00382.M2TS      0:30:57.689     0:01:50.568     456,062,976     32,998
00383.M2TS      0:32:48.257     0:03:47.060     932,136,960     32,842
00384.M2TS      0:36:35.318     0:01:06.816     273,119,232     32,701
00385.M2TS      0:37:42.134     0:06:26.469     1,752,649,728   36,280
00386.M2TS      0:44:08.604     0:00:50.884     206,690,304     32,496
00387.M2TS      0:44:59.488     0:05:58.441     1,618,022,400   36,112
00388.M2TS      0:50:57.929     0:00:29.738     127,119,360     34,197
00389.M2TS      0:51:27.667     0:13:37.608     3,744,208,896   36,636
00390.M2TS      1:05:05.276     0:01:10.320     290,328,576     33,029
00391.M2TS      1:06:15.596     0:25:15.931     6,783,043,584   35,796

CHAPTERS:

Number          Time In         Length          Avg Video Rate  Max 1-Sec Rate  Max 1-Sec Time  Max 5-Sec Rate  Max 5-Sec Time  Max 10Sec Rate  Max 10Sec Time  Avg Frame Size  Max Frame Size  Max Frame Time
------          -------         ------          --------------  --------------  --------------  --------------  --------------  --------------  --------------  --------------  --------------  --------------
1               0:00:00.000     0:06:51.369     26,176 kbps     38,949 kbps     00:04:46.411    34,601 kbps     00:05:07.515    34,379 kbps     00:06:05.615    136,455 bytes   430,455 bytes   00:05:02.051
2               0:06:51.369     0:03:42.180     26,682 kbps     36,080 kbps     00:07:31.159    34,350 kbps     00:07:51.345    34,162 kbps     00:06:51.828    139,110 bytes   337,886 bytes   00:07:35.955
3               0:10:33.549     0:05:54.103     26,078 kbps     36,180 kbps     00:12:16.819    34,151 kbps     00:12:13.691    33,184 kbps     00:12:13.691    135,959 bytes   318,454 bytes   00:10:34.508
4               0:16:27.653     0:05:57.690     23,296 kbps     36,254 kbps     00:20:03.744    34,146 kbps     00:18:39.076    32,611 kbps     00:18:33.529    121,454 bytes   345,316 bytes   00:20:16.089
5               0:22:25.343     0:03:51.314     30,078 kbps     37,171 kbps     00:24:07.237    34,540 kbps     00:24:06.194    34,365 kbps     00:22:28.346    156,812 bytes   384,857 bytes   00:25:29.569
6               0:26:16.658     0:07:37.623     29,506 kbps     38,970 kbps     00:27:54.130    34,803 kbps     00:27:58.676    34,355 kbps     00:32:26.819    153,830 bytes   411,387 bytes   00:29:09.706
7               0:33:54.282     0:06:35.937     26,225 kbps     37,964 kbps     00:37:50.351    34,431 kbps     00:37:18.152    34,173 kbps     00:37:18.027    136,725 bytes   437,216 bytes   00:37:53.104
8               0:40:30.219     0:05:41.174     26,573 kbps     37,927 kbps     00:41:30.487    35,003 kbps     00:41:26.483    33,556 kbps     00:41:24.690    138,540 bytes   441,439 bytes   00:41:31.238
9               0:46:11.393     0:06:54.580     26,551 kbps     36,539 kbps     00:47:48.740    34,524 kbps     00:47:29.763    34,200 kbps     00:47:27.636    138,424 bytes   412,641 bytes   00:46:59.608
10              0:53:05.974     0:04:17.173     30,881 kbps     38,185 kbps     00:53:59.736    34,704 kbps     00:54:04.866    34,154 kbps     00:53:59.861    160,998 bytes   317,764 bytes   00:54:00.403
11              0:57:23.147     0:04:00.990     25,461 kbps     37,939 kbps     00:58:10.862    32,417 kbps     00:59:45.998    30,510 kbps     00:59:06.042    132,745 bytes   276,678 bytes   01:01:16.839
12              1:01:24.138     0:04:47.704     24,983 kbps     36,417 kbps     01:03:44.445    34,261 kbps     01:03:52.787    32,825 kbps     01:03:24.133    130,248 bytes   444,368 bytes   01:04:48.342
13              1:06:11.842     0:05:15.857     30,895 kbps     39,030 kbps     01:09:33.836    34,728 kbps     01:06:30.194    34,247 kbps     01:07:00.724    161,072 bytes   500,116 bytes   01:09:34.378
14              1:11:27.699     0:05:36.544     32,803 kbps     40,564 kbps     01:11:55.144    35,082 kbps     01:14:03.522    34,500 kbps     01:14:45.856    171,022 bytes   538,544 bytes   01:14:23.375
15              1:17:04.244     0:02:27.522     32,542 kbps     36,198 kbps     01:19:11.204    34,520 kbps     01:17:20.844    34,246 kbps     01:17:45.994    169,659 bytes   407,507 bytes   01:17:05.245
16              1:19:31.766     0:11:59.760     21,171 kbps     35,354 kbps     01:25:40.718    34,305 kbps     01:25:36.631    34,139 kbps     01:25:31.626    110,381 bytes   398,456 bytes   01:25:41.135

STREAM DIAGNOSTICS:

File            PID             Type            Codec           Language                Seconds                 Bitrate                 Bytes           Packets
----            ---             ----            -----           --------                --------------          --------------          -------------   -----
00379.M2TS      4113 (0x1011)   0x1B            AVC                                     496.663                 26,946                  1,672,895,417   9,098,902
00379.M2TS      4352 (0x1100)   0x81            AC3             eng (English)           496.663                 192                     11,922,432      77,620
00379.M2TS      4353 (0x1101)   0x83            TrueHD          eng (English)           496.663                 2,115                   131,294,578     962,349
00379.M2TS      4354 (0x1102)   0x81            AC3             eng (English)           496.663                 640                     39,741,440      232,860
00379.M2TS      4608 (0x1200)   0x90            PGS             eng (English)           496.663                 51                      3,179,790       18,091
00379.M2TS      4609 (0x1201)   0x90            PGS             eng (English)           496.663                 16                      1,014,068       5,765
00379.M2TS      4610 (0x1202)   0x90            PGS             eng (English)           496.663                 17                      1,033,144       5,992
00379.M2TS      4611 (0x1203)   0x90            PGS             hin (Hindi)             496.663                 14                      895,355         5,155
00379.M2TS      4612 (0x1204)   0x90            PGS             eng (English)           496.663                 51                      3,179,790       18,091
00379.M2TS      6912 (0x1B00)   0x1B            AVC                                     496.663                 4,006                   248,674,364     1,358,385
00380.M2TS      4113 (0x1011)   0x1B            AVC                                     8.509                   27,282                  29,016,340      157,815
00380.M2TS      4352 (0x1100)   0x81            AC3             eng (English)           8.509                   194                     206,592         1,345
00380.M2TS      4353 (0x1101)   0x83            TrueHD          eng (English)           8.509                   1,956                   2,080,196       14,992
00380.M2TS      4354 (0x1102)   0x81            AC3             eng (English)           8.509                   647                     688,640         4,035
00380.M2TS      4608 (0x1200)   0x90            PGS             eng (English)           8.509                   61                      65,230          368
00380.M2TS      4609 (0x1201)   0x90            PGS             eng (English)           8.509                   79                      84,465          479
00380.M2TS      4610 (0x1202)   0x90            PGS             eng (English)           8.509                   56                      59,628          343
00380.M2TS      4611 (0x1203)   0x90            PGS             hin (Hindi)             8.509                   68                      72,193          412
00380.M2TS      4612 (0x1204)   0x90            PGS             eng (English)           8.509                   61                      65,230          368
00380.M2TS      6912 (0x1B00)   0x1B            AVC                                     8.509                   459                     488,287         2,751
00381.M2TS      4113 (0x1011)   0x1B            AVC                                     1352.184                26,924                  4,550,836,086   24,751,685
00381.M2TS      4352 (0x1100)   0x81            AC3             eng (English)           1352.184                192                     32,456,448      211,305
00381.M2TS      4353 (0x1101)   0x83            TrueHD          eng (English)           1352.184                2,244                   379,283,694     2,894,749
00381.M2TS      4354 (0x1102)   0x81            AC3             eng (English)           1352.184                640                     108,188,160     633,915
00381.M2TS      4608 (0x1200)   0x90            PGS             eng (English)           1352.184                48                      8,192,036       46,787
00381.M2TS      4609 (0x1201)   0x90            PGS             eng (English)           1352.184                16                      2,677,463       15,367
00381.M2TS      4610 (0x1202)   0x90            PGS             eng (English)           1352.184                15                      2,473,597       14,584
00381.M2TS      4611 (0x1203)   0x90            PGS             hin (Hindi)             1352.184                17                      2,929,290       16,930
00381.M2TS      4612 (0x1204)   0x90            PGS             eng (English)           1352.184                48                      8,192,036       46,787
00381.M2TS      6912 (0x1B00)   0x1B            AVC                                     1352.184                3,718                   628,428,719     3,433,371
00382.M2TS      4113 (0x1011)   0x1B            AVC                                     110.402                 26,892                  371,115,173     2,018,479
00382.M2TS      4352 (0x1100)   0x81            AC3             eng (English)           110.402                 192                     2,654,208       17,280
00382.M2TS      4353 (0x1101)   0x83            TrueHD          eng (English)           110.402                 2,261                   31,197,526      232,900
00382.M2TS      4354 (0x1102)   0x81            AC3             eng (English)           110.402                 641                     8,847,360       51,840
00382.M2TS      4608 (0x1200)   0x90            PGS             eng (English)           110.402                 50                      688,814         3,967
00382.M2TS      4609 (0x1201)   0x90            PGS             eng (English)           110.402                 37                      512,908         2,941
00382.M2TS      4610 (0x1202)   0x90            PGS             eng (English)           110.402                 30                      416,378         2,428
00382.M2TS      4611 (0x1203)   0x90            PGS             hin (Hindi)             110.402                 29                      403,596         2,346
00382.M2TS      4612 (0x1204)   0x90            PGS             eng (English)           110.402                 50                      688,814         3,967
00382.M2TS      6912 (0x1B00)   0x1B            AVC                                     110.402                 456                     6,292,674       35,451
00383.M2TS      4113 (0x1011)   0x1B            AVC                                     226.893                 25,354                  719,095,521     3,911,315
00383.M2TS      4352 (0x1100)   0x81            AC3             eng (English)           226.893                 192                     5,449,728       35,480
00383.M2TS      4353 (0x1101)   0x83            TrueHD          eng (English)           226.893                 2,163                   61,334,766      449,744
00383.M2TS      4354 (0x1102)   0x81            AC3             eng (English)           226.893                 641                     18,165,760      106,440
00383.M2TS      4608 (0x1200)   0x90            PGS             eng (English)           226.893                 56                      1,595,434       9,097
00383.M2TS      4609 (0x1201)   0x90            PGS             eng (English)           226.893                 43                      1,227,058       7,007
00383.M2TS      4610 (0x1202)   0x90            PGS             eng (English)           226.893                 34                      960,426         5,573
00383.M2TS      4611 (0x1203)   0x90            PGS             hin (Hindi)             226.893                 37                      1,040,077       5,988
00383.M2TS      4612 (0x1204)   0x90            PGS             eng (English)           226.893                 56                      1,595,434       9,097
00383.M2TS      6912 (0x1B00)   0x1B            AVC                                     226.893                 1,977                   56,069,921      307,505
00384.M2TS      4113 (0x1011)   0x1B            AVC                                     66.650                  27,052                  225,379,396     1,225,813
00384.M2TS      4352 (0x1100)   0x81            AC3             eng (English)           66.650                  193                     1,604,352       10,445
00384.M2TS      4353 (0x1101)   0x83            TrueHD          eng (English)           66.650                  2,052                   17,096,960      125,353
00384.M2TS      4354 (0x1102)   0x81            AC3             eng (English)           66.650                  642                     5,347,840       31,335
00384.M2TS      4608 (0x1200)   0x90            PGS             eng (English)           66.650                  58                      479,778         2,712
00384.M2TS      4609 (0x1201)   0x90            PGS             eng (English)           66.650                  0                       70              7
00384.M2TS      4610 (0x1202)   0x90            PGS             eng (English)           66.650                  6                       52,905          320
00384.M2TS      4611 (0x1203)   0x90            PGS             hin (Hindi)             66.650                  3                       23,245          133
00384.M2TS      4612 (0x1204)   0x90            PGS             eng (English)           66.650                  58                      479,778         2,712
00384.M2TS      6912 (0x1B00)   0x1B            AVC                                     66.650                  456                     3,802,813       21,423
00385.M2TS      4113 (0x1011)   0x1B            AVC                                     386.303                 26,997                  1,303,613,209   7,090,265
00385.M2TS      4352 (0x1100)   0x81            AC3             eng (English)           386.303                 192                     9,275,904       60,390
00385.M2TS      4353 (0x1101)   0x83            TrueHD          eng (English)           386.303                 2,027                   97,875,432      679,390
00385.M2TS      4354 (0x1102)   0x81            AC3             eng (English)           386.303                 640                     30,919,680      181,170
00385.M2TS      4608 (0x1200)   0x90            PGS             eng (English)           386.303                 54                      2,590,092       14,761
00385.M2TS      4609 (0x1201)   0x90            PGS             eng (English)           386.303                 28                      1,348,111       7,703
00385.M2TS      4610 (0x1202)   0x90            PGS             eng (English)           386.303                 22                      1,042,504       6,078
00385.M2TS      4611 (0x1203)   0x90            PGS             hin (Hindi)             386.303                 25                      1,211,488       6,965
00385.M2TS      4612 (0x1204)   0x90            PGS             eng (English)           386.303                 54                      2,590,092       14,761
00385.M2TS      6912 (0x1B00)   0x1B            AVC                                     386.303                 3,995                   192,931,382     1,053,929
00386.M2TS      4113 (0x1011)   0x1B            AVC                                     50.801                  27,033                  171,660,627     933,667
00386.M2TS      4352 (0x1100)   0x81            AC3             eng (English)           50.801                  192                     1,221,888       7,955
00386.M2TS      4353 (0x1101)   0x83            TrueHD          eng (English)           50.801                  2,021                   12,834,176      89,757
00386.M2TS      4354 (0x1102)   0x81            AC3             eng (English)           50.801                  641                     4,072,960       23,865
00386.M2TS      4608 (0x1200)   0x90            PGS             eng (English)           50.801                  29                      187,185         1,070
00386.M2TS      4609 (0x1201)   0x90            PGS             eng (English)           50.801                  11                      69,405          410
00386.M2TS      4610 (0x1202)   0x90            PGS             eng (English)           50.801                  9                       55,014          336
00386.M2TS      4611 (0x1203)   0x90            PGS             hin (Hindi)             50.801                  9                       58,898          352
00386.M2TS      4612 (0x1204)   0x90            PGS             eng (English)           50.801                  29                      187,185         1,070
00386.M2TS      6912 (0x1B00)   0x1B            AVC                                     50.801                  456                     2,896,081       16,315
00387.M2TS      4113 (0x1011)   0x1B            AVC                                     358.358                 26,326                  1,179,265,880   6,414,018
00387.M2TS      4352 (0x1100)   0x81            AC3             eng (English)           358.358                 192                     8,603,136       56,010
00387.M2TS      4353 (0x1101)   0x83            TrueHD          eng (English)           358.358                 2,243                   100,472,292     798,301
00387.M2TS      4354 (0x1102)   0x81            AC3             eng (English)           358.358                 640                     28,677,120      168,030
00387.M2TS      4608 (0x1200)   0x90            PGS             eng (English)           358.358                 44                      1,952,286       11,163
00387.M2TS      4609 (0x1201)   0x90            PGS             eng (English)           358.358                 17                      775,951         4,477
00387.M2TS      4610 (0x1202)   0x90            PGS             eng (English)           358.358                 17                      773,691         4,548
00387.M2TS      4611 (0x1203)   0x90            PGS             hin (Hindi)             358.358                 17                      749,042         4,362
00387.M2TS      4612 (0x1204)   0x90            PGS             eng (English)           358.358                 44                      1,952,286       11,163
00387.M2TS      6912 (0x1B00)   0x1B            AVC                                     358.358                 3,854                   172,648,302     943,120
00388.M2TS      4113 (0x1011)   0x1B            AVC                                     29.571                  27,069                  100,057,824     544,200
00388.M2TS      4352 (0x1100)   0x81            AC3             eng (English)           29.571                  193                     714,240         4,650
00388.M2TS      4353 (0x1101)   0x83            TrueHD          eng (English)           29.571                  2,661                   9,836,082       87,485
00388.M2TS      4354 (0x1102)   0x81            AC3             eng (English)           29.571                  644                     2,380,800       13,950
00388.M2TS      4608 (0x1200)   0x90            PGS             eng (English)           29.571                  29                      106,232         604
00388.M2TS      4609 (0x1201)   0x90            PGS             eng (English)           29.571                  0                       70              7
00388.M2TS      4610 (0x1202)   0x90            PGS             eng (English)           29.571                  1                       2,638           21
00388.M2TS      4611 (0x1203)   0x90            PGS             hin (Hindi)             29.571                  0                       70              7
00388.M2TS      4612 (0x1204)   0x90            PGS             eng (English)           29.571                  29                      106,232         604
00388.M2TS      6912 (0x1B00)   0x1B            AVC                                     29.571                  458                     1,692,174       9,533
00389.M2TS      4113 (0x1011)   0x1B            AVC                                     817.525                 27,001                  2,759,283,583   15,007,530
00389.M2TS      4352 (0x1100)   0x81            AC3             eng (English)           817.525                 192                     19,623,168      127,755
00389.M2TS      4353 (0x1101)   0x83            TrueHD          eng (English)           817.525                 2,531                   258,593,620     2,161,303
00389.M2TS      4354 (0x1102)   0x81            AC3             eng (English)           817.525                 640                     65,410,560      383,265
00389.M2TS      4608 (0x1200)   0x90            PGS             eng (English)           817.525                 45                      4,612,968       26,217
00389.M2TS      4609 (0x1201)   0x90            PGS             eng (English)           817.525                 6                       617,935         3,618
00389.M2TS      4610 (0x1202)   0x90            PGS             eng (English)           817.525                 6                       646,492         3,883
00389.M2TS      4611 (0x1203)   0x90            PGS             hin (Hindi)             817.525                 5                       539,747         3,192
00389.M2TS      4612 (0x1204)   0x90            PGS             eng (English)           817.525                 45                      4,612,968       26,217
00389.M2TS      6912 (0x1B00)   0x1B            AVC                                     817.525                 3,094                   316,132,876     1,730,695
00390.M2TS      4113 (0x1011)   0x1B            AVC                                     70.153                  27,036                  237,084,725     1,289,473
00390.M2TS      4352 (0x1100)   0x81            AC3             eng (English)           70.153                  192                     1,688,064       10,990
00390.M2TS      4353 (0x1101)   0x83            TrueHD          eng (English)           70.153                  2,169                   19,024,304      145,441
00390.M2TS      4354 (0x1102)   0x81            AC3             eng (English)           70.153                  642                     5,626,880       32,970
00390.M2TS      4608 (0x1200)   0x90            PGS             eng (English)           70.153                  44                      383,505         2,214
00390.M2TS      4609 (0x1201)   0x90            PGS             eng (English)           70.153                  28                      246,518         1,442
00390.M2TS      4610 (0x1202)   0x90            PGS             eng (English)           70.153                  22                      191,443         1,147
00390.M2TS      4611 (0x1203)   0x90            PGS             hin (Hindi)             70.153                  26                      226,733         1,338
00390.M2TS      4612 (0x1204)   0x90            PGS             eng (English)           70.153                  44                      383,505         2,214
00390.M2TS      6912 (0x1B00)   0x1B            AVC                                     70.153                  456                     4,001,291       22,543
00391.M2TS      4113 (0x1011)   0x1B            AVC                                     1515.764                26,870                  5,090,989,619   27,689,663
00391.M2TS      4352 (0x1100)   0x81            AC3             eng (English)           1515.764                192                     36,382,464      236,865
00391.M2TS      4353 (0x1101)   0x83            TrueHD          eng (English)           1515.764                2,342                   443,705,188     3,486,250
00391.M2TS      4354 (0x1102)   0x81            AC3             eng (English)           1515.764                640                     121,274,880     710,595
00391.M2TS      4608 (0x1200)   0x90            PGS             eng (English)           1515.764                23                      4,338,621       24,711
00391.M2TS      4609 (0x1201)   0x90            PGS             eng (English)           1515.764                2                       338,779         2,044
00391.M2TS      4610 (0x1202)   0x90            PGS             eng (English)           1515.764                2                       377,786         2,401
00391.M2TS      4611 (0x1203)   0x90            PGS             hin (Hindi)             1515.764                2                       287,494         1,774
00391.M2TS      4612 (0x1204)   0x90            PGS             eng (English)           1515.764                23                      4,338,621       24,711
00391.M2TS      6912 (0x1B00)   0x1B            AVC                                     1515.764                2,986                   565,834,889     3,098,550
Review: Hifi-Writer.com

Screenshots: Still looking although the video identical to US release.
+/-French Blu-Ray (Released 9/23/2008)
DISC INFO:

Disc Title:     RAMBO_4
Disc Size:      45,404,631,236 bytes
Protection:     AACS
BD-Java:        No

PLAYLIST REPORT:

Name:           00021.mpls
Size:           22,040,303,616 bytes
Length:         1:31:06 (h:m:s)
Total Bitrate:  32.26 Mbps
Description:

FILES:

Name            Size            Length          Time In         Time Out
----            ----            ------          -------         --------
00022.M2TS      22,040,303,616  1:31:06.252     0:00:00.000     1:31:06.252

VIDEO:

Codec               Bitrate         Description
-----               -------         -----------
VC-1 Video          24862 kbps      1080p / 23.976fps / 16:9 / Advanced Profile 3

AUDIO:

Codec                           Language        Bitrate         Description
-----                           --------        -------         -----------
DTS-HD Master Audio             English         2663 kbps       5.1 / 48kHz / 16-bit / 2663kbps (DTS Core: 5.1 / 48kHz / 16-bit / 1536kbps)
DTS-HD Audio                    French          2046 kbps       5.1 / 48kHz / 16-bit / 2046kbps (DTS Core: 5.1 / 48kHz / 16-bit / 1536kbps)
DTS Audio                       English         768 kbps        2.0 / 48kHz / 16-bit / 768kbps

SUBTITLES:

Codec                           Language        Bitrate         Description
-----                           --------        -------         -----------
Presentation Graphics           French          0.931 kbps
Presentation Graphics           French          12.457 kbps
Presentation Graphics           French          35.658 kbps

GRAPHICS:

Codec                           Language        Bitrate         Description
-----                           --------        -------         -----------
Interactive Graphics            French          0.088 kbps

CHAPTERS:

Number          Time            Length          Avg Video Rate  Max 1-Sec Rate  Max 1-Sec Time  Max 5-Sec Rate  Max 5-Sec Time  Max 10Sec Rate  Max 10Sec Time  Avg Frame Size  Max Frame Size  Max Frame Time
------          ----            ------          --------------  --------------  --------------  --------------  --------------  --------------  --------------  --------------  --------------  --------------
1               0:00:00.000     0:09:20.560     21,832 kbps     44,714 kbps     00:06:49.284    34,347 kbps     00:00:01.168    32,005 kbps     00:04:20.594    113,824 bytes   455,000 bytes   00:04:15.088
2               0:09:20.560     0:21:19.278     25,861 kbps     42,813 kbps     00:28:08.270    34,174 kbps     00:28:57.736    33,013 kbps     00:28:53.148    134,826 bytes   477,525 bytes   00:22:50.035
3               0:30:39.838     0:05:27.327     24,727 kbps     42,631 kbps     00:31:39.523    32,066 kbps     00:33:47.817    31,159 kbps     00:34:05.794    128,914 bytes   431,474 bytes   00:31:29.096
4               0:36:07.165     0:07:43.463     22,833 kbps     39,130 kbps     00:38:03.281    33,870 kbps     00:36:35.944    29,327 kbps     00:36:30.397    119,038 bytes   503,205 bytes   00:36:38.488
5               0:43:50.628     0:06:43.403     26,449 kbps     47,115 kbps     00:46:57.273    34,936 kbps     00:49:17.872    32,608 kbps     00:49:15.536    137,891 bytes   548,344 bytes   00:46:35.793
6               0:50:34.031     0:14:08.848     29,415 kbps     44,694 kbps     00:57:25.233    35,005 kbps     00:57:22.898    33,117 kbps     00:59:16.511    153,354 bytes   502,553 bytes   01:02:32.874
7               1:04:42.879     0:26:23.373     22,906 kbps     49,267 kbps     01:12:39.313    35,397 kbps     01:17:08.582    32,803 kbps     01:12:32.974    119,424 bytes   568,685 bytes   01:11:09.932

STREAM DIAGNOSTICS:

File            PID             Type            Codec           Lang. Code      Lang. Name      Seconds         Bytes           Packets         Bitrate
----            ---             ----            -----           ----------      ----------      -------         -----           -------         -------
00022.M2TS      4113 (0x1011)   0xEA            VC-1                                            5466.25         16,987,949,488  92,404,911      24,862
00022.M2TS      4352 (0x1100)   0x85            DTS-HD HR       fra             French          5466.25         1,397,996,336   8,199,392       2,046
00022.M2TS      4353 (0x1101)   0x86            DTS-HD MA       eng             English         5466.25         1,819,772,988   10,737,833      2,663
00022.M2TS      4354 (0x1102)   0x82            DTS             eng             English         5466.25         524,761,088     3,074,772       768
00022.M2TS      4608 (0x1200)   0x90            PGS             fra             French          5466.25         636,158         3,736           1
00022.M2TS      4609 (0x1201)   0x90            PGS             fra             French          5466.25         8,511,577       49,794          12
00022.M2TS      4610 (0x1202)   0x90            PGS             fra             French          5466.25         24,364,274      139,309         36
00022.M2TS      5120 (0x1400)   0x91            IGS             fra             French          5466.25         59,976          348             0
Review: DVDDrama

Screenshots: Still looking...
+/-Russian Blu-Ray (Released 4/2/2009)
DISC INFO:

Disc Title:     RAMBO IV
Disc Size:      37 131 218 736 bytes
Protection:     AACS
BD-Java:        No
BDInfo:         0.5.2

PLAYLIST REPORT:

Name:                   00002.MPLS
Size:                   26 092 800 000 bytes
Length:                 1:31:31 (h:m:s)
Total Bitrate:          38,01 Mbps
Description:

VIDEO:

Codec                   Bitrate             Description
-----                   -------             -----------
MPEG-4 AVC Video        26820 kbps          1080p / 23,976 fps / 16:9 / High Profile 4.1

AUDIO:

Codec                           Language        Bitrate         Description
-----                           --------        -------         -----------
DTS-HD Master Audio             English         5516 kbps       7.1 / 48 kHz / 5516 kbps / 24-bit (DTS Core: 5.1 / 48 kHz / 1509 kbps / 24-bit)
Dolby TrueHD Audio              Russian         2066 kbps       5.1 / 48 kHz / 2066 kbps / 16-bit (AC3 Core: 5.1 / 48 kHz / 448 kbps)

SUBTITLES:

Codec                           Language        Bitrate         Description
-----                           --------        -------         -----------
Presentation Graphics           English         24,786 kbps
Presentation Graphics           Russian         12,201 kbps

FILES:

Name            Time In         Length          Size            Total Bitrate
----            -------         ------          ----            -------------
00004.M2TS      0:00:00.000     0:08:16.746     2 344 366 080   37 756
00005.M2TS      0:08:16.746     0:00:08.591     38 713 344      36 046
00006.M2TS      0:08:25.338     0:22:32.351     6 421 401 600   37 987
00007.M2TS      0:30:57.689     0:01:50.568     525 508 608     38 022
00008.M2TS      0:32:48.257     0:03:47.060     1 031 491 584   36 342
00009.M2TS      0:36:35.318     0:01:06.816     313 245 696     37 505
00010.M2TS      0:37:42.134     0:06:26.469     1 827 158 016   37 823
00011.M2TS      0:44:08.604     0:00:50.884     239 702 016     37 686
00012.M2TS      0:44:59.488     0:05:58.441     1 672 937 472   37 338
00013.M2TS      0:50:57.929     0:00:29.738     144 795 648     38 952
00014.M2TS      0:51:27.667     0:13:37.608     3 962 738 688   38 774
00015.M2TS      1:05:05.276     0:01:10.320     334 424 064     38 046
00016.M2TS      1:06:15.596     0:25:15.931     7 236 317 184   38 188

CHAPTERS:

Number          Time In         Length          Avg Video Rate  Max 1-Sec Rate  Max 1-Sec Time  Max 5-Sec Rate  Max 5-Sec Time  Max 10Sec Rate  Max 10Sec Time  Avg Frame Size  Max Frame Size  Max Frame Time
------          -------         ------          --------------  --------------  --------------  --------------  --------------  --------------  --------------  --------------  --------------  --------------
1               0:00:00.000     0:06:51.369     26 176 kbps     38 949 kbps     00:04:46.411    34 601 kbps     00:05:07.515    34 379 kbps     00:06:05.615    136 455 bytes   430 455 bytes   00:05:02.051
2               0:06:51.369     0:03:42.180     26 682 kbps     36 080 kbps     00:07:31.159    34 350 kbps     00:07:51.345    34 162 kbps     00:06:51.828    139 110 bytes   337 886 bytes   00:07:35.955
3               0:10:33.549     0:05:54.103     26 078 kbps     36 180 kbps     00:12:16.819    34 151 kbps     00:12:13.691    33 184 kbps     00:12:13.691    135 959 bytes   318 454 bytes   00:10:34.508
4               0:16:27.653     0:05:57.690     23 296 kbps     36 254 kbps     00:20:03.744    34 146 kbps     00:18:39.076    32 611 kbps     00:18:33.529    121 454 bytes   345 316 bytes   00:20:16.089
5               0:22:25.343     0:03:51.314     30 078 kbps     37 171 kbps     00:24:07.237    34 540 kbps     00:24:06.194    34 365 kbps     00:22:28.346    156 812 bytes   384 857 bytes   00:25:29.569
6               0:26:16.658     0:07:37.623     29 506 kbps     38 970 kbps     00:27:54.130    34 803 kbps     00:27:58.676    34 355 kbps     00:32:26.819    153 830 bytes   411 387 bytes   00:29:09.706
7               0:33:54.282     0:06:35.937     26 225 kbps     37 964 kbps     00:37:50.351    34 431 kbps     00:37:18.152    34 173 kbps     00:37:18.027    136 725 bytes   437 216 bytes   00:37:53.104
8               0:40:30.219     0:05:41.174     26 573 kbps     37 927 kbps     00:41:30.487    35 003 kbps     00:41:26.483    33 556 kbps     00:41:24.690    138 540 bytes   441 439 bytes   00:41:31.238
9               0:46:11.393     0:06:54.580     26 551 kbps     36 539 kbps     00:47:48.740    34 524 kbps     00:47:29.763    34 200 kbps     00:47:27.636    138 424 bytes   412 641 bytes   00:46:59.608
10              0:53:05.974     0:04:17.173     30 881 kbps     38 185 kbps     00:53:59.736    34 704 kbps     00:54:04.866    34 154 kbps     00:53:59.861    160 998 bytes   317 764 bytes   00:54:00.403
11              0:57:23.147     0:04:00.990     25 461 kbps     37 939 kbps     00:58:10.862    32 417 kbps     00:59:45.998    30 510 kbps     00:59:06.042    132 745 bytes   276 678 bytes   01:01:16.839
12              1:01:24.138     0:04:47.704     24 983 kbps     36 417 kbps     01:03:44.445    34 261 kbps     01:03:52.787    32 825 kbps     01:03:24.133    130 248 bytes   444 368 bytes   01:04:48.342
13              1:06:11.842     0:05:15.857     30 895 kbps     39 030 kbps     01:09:33.836    34 728 kbps     01:06:30.194    34 247 kbps     01:07:00.724    161 072 bytes   500 116 bytes   01:09:34.378
14              1:11:27.699     0:05:36.544     32 803 kbps     40 564 kbps     01:11:55.144    35 082 kbps     01:14:03.522    34 500 kbps     01:14:45.856    171 022 bytes   538 544 bytes   01:14:23.375
15              1:17:04.244     0:02:27.522     32 542 kbps     36 198 kbps     01:19:11.204    34 520 kbps     01:17:20.844    34 246 kbps     01:17:45.994    169 659 bytes   407 507 bytes   01:17:05.245
16              1:19:31.766     0:11:59.760     21 171 kbps     35 354 kbps     01:25:40.718    34 305 kbps     01:25:36.631    34 139 kbps     01:25:31.626    110 381 bytes   398 456 bytes   01:25:41.135

STREAM DIAGNOSTICS:

File            PID             Type            Codec           Language                Seconds                 Bitrate                 Bytes           Packets
----            ---             ----            -----           --------                --------------          --------------          -------------   -----
00004.M2TS      4113 (0x1011)   0x1B            AVC                                     496,621                 26 948                  1 672 895 417   9 098 902
00004.M2TS      4352 (0x1100)   0x83            TrueHD          rus (Russian)           496,621                 2 263                   140 479 854     1 237 511
00004.M2TS      4353 (0x1101)   0x86            DTS-HD MA       eng (English)           496,621                 5 219                   323 960 012     1 838 080
00004.M2TS      4608 (0x1200)   0x90            PGS             rus (Russian)           496,621                 24                      1 480 984       8 535
00004.M2TS      4609 (0x1201)   0x90            PGS             eng (English)           496,621                 30                      1 866 693       10 526
00005.M2TS      4113 (0x1011)   0x1B            AVC                                     8,425                   27 552                  29 016 340      157 815
00005.M2TS      4352 (0x1100)   0x83            TrueHD          rus (Russian)           8,425                   1 966                   2 070 678       13 696
00005.M2TS      4353 (0x1101)   0x86            DTS-HD MA       eng (English)           8,425                   4 781                   5 034 584       28 740
00005.M2TS      4608 (0x1200)   0x90            PGS             rus (Russian)           8,425                   52                      54 498          318
00005.M2TS      4609 (0x1201)   0x90            PGS             eng (English)           8,425                   129                     135 669         768
00006.M2TS      4113 (0x1011)   0x1B            AVC                                     1352,184                26 924                  4 550 836 086   24 751 685
00006.M2TS      4352 (0x1100)   0x83            TrueHD          rus (Russian)           1352,184                2 454                   414 727 474     3 391 967
00006.M2TS      4353 (0x1101)   0x86            DTS-HD MA       eng (English)           1352,184                5 447                   920 631 724     5 213 958
00006.M2TS      4608 (0x1200)   0x90            PGS             rus (Russian)           1352,184                14                      2 412 445       14 228
00006.M2TS      4609 (0x1201)   0x90            PGS             eng (English)           1352,184                29                      4 853 409       27 648
00007.M2TS      4113 (0x1011)   0x1B            AVC                                     110,402                 26 892                  371 115 173     2 018 479
00007.M2TS      4352 (0x1100)   0x83            TrueHD          rus (Russian)           110,402                 2 494                   34 412 224      280 841
00007.M2TS      4353 (0x1101)   0x86            DTS-HD MA       eng (English)           110,402                 5 455                   75 283 768      426 623
00007.M2TS      4608 (0x1200)   0x90            PGS             rus (Russian)           110,402                 27                      375 040         2 208
00007.M2TS      4609 (0x1201)   0x90            PGS             eng (English)           110,402                 66                      909 548         5 145
00008.M2TS      4113 (0x1011)   0x1B            AVC                                     226,893                 25 354                  719 095 521     3 911 315
00008.M2TS      4352 (0x1100)   0x83            TrueHD          rus (Russian)           226,893                 2 363                   67 022 856      583 477
00008.M2TS      4353 (0x1101)   0x86            DTS-HD MA       eng (English)           226,893                 5 280                   149 751 908     848 934
00008.M2TS      4608 (0x1200)   0x90            PGS             rus (Russian)           226,893                 39                      1 119 442       6 511
00008.M2TS      4609 (0x1201)   0x90            PGS             eng (English)           226,893                 91                      2 571 424       14 503
00009.M2TS      4113 (0x1011)   0x1B            AVC                                     66,650                  27 052                  225 379 396     1 225 813
00009.M2TS      4352 (0x1100)   0x83            TrueHD          rus (Russian)           66,650                  2 216                   18 457 932      160 149
00009.M2TS      4353 (0x1101)   0x86            DTS-HD MA       eng (English)           66,650                  5 116                   42 623 460      242 041
00009.M2TS      4608 (0x1200)   0x90            PGS             rus (Russian)           66,650                  8                       70 420          404
00009.M2TS      4609 (0x1201)   0x90            PGS             eng (English)           66,650                  18                      146 899         834
00010.M2TS      4113 (0x1011)   0x1B            AVC                                     386,303                 26 997                  1 303 613 209   7 090 265
00010.M2TS      4352 (0x1100)   0x83            TrueHD          rus (Russian)           386,303                 2 194                   105 952 608     991 975
00010.M2TS      4353 (0x1101)   0x86            DTS-HD MA       eng (English)           386,303                 5 102                   246 377 608     1 399 345
00010.M2TS      4608 (0x1200)   0x90            PGS             rus (Russian)           386,303                 25                      1 231 028       7 177
00010.M2TS      4609 (0x1201)   0x90            PGS             eng (English)           386,303                 54                      2 606 140       14 727
00011.M2TS      4113 (0x1011)   0x1B            AVC                                     50,717                  27 077                  171 660 627     933 667
00011.M2TS      4352 (0x1100)   0x83            TrueHD          rus (Russian)           50,717                  2 211                   14 020 100      124 009
00011.M2TS      4353 (0x1101)   0x86            DTS-HD MA       eng (English)           50,717                  5 225                   33 122 096      188 030
00011.M2TS      4608 (0x1200)   0x90            PGS             rus (Russian)           50,717                  8                       53 073          325
00011.M2TS      4609 (0x1201)   0x90            PGS             eng (English)           50,717                  20                      123 822         710
00012.M2TS      4113 (0x1011)   0x1B            AVC                                     358,275                 26 332                  1 179 265 880   6 414 018
00012.M2TS      4352 (0x1100)   0x83            TrueHD          rus (Russian)           358,275                 2 447                   109 573 448     881 342
00012.M2TS      4353 (0x1101)   0x86            DTS-HD MA       eng (English)           358,275                 5 496                   246 127 440     1 393 689
00012.M2TS      4608 (0x1200)   0x90            PGS             rus (Russian)           358,275                 14                      635 384         3 809
00012.M2TS      4609 (0x1201)   0x90            PGS             eng (English)           358,275                 33                      1 459 759       8 325
00013.M2TS      4113 (0x1011)   0x1B            AVC                                     29,571                  27 069                  100 057 824     544 200
00013.M2TS      4352 (0x1100)   0x83            TrueHD          rus (Russian)           29,571                  2 921                   10 797 566      80 962
00013.M2TS      4353 (0x1101)   0x86            DTS-HD MA       eng (English)           29,571                  6 136                   22 681 436      127 894
00013.M2TS      4608 (0x1200)   0x90            PGS             rus (Russian)           29,571                  2                       6 762           44
00013.M2TS      4609 (0x1201)   0x90            PGS             eng (English)           29,571                  2                       6 762           44
00014.M2TS      4113 (0x1011)   0x1B            AVC                                     817,442                 27 004                  2 759 283 583   15 007 530
00014.M2TS      4352 (0x1100)   0x83            TrueHD          rus (Russian)           817,442                 2 792                   285 283 526     2 194 542
00014.M2TS      4353 (0x1101)   0x86            DTS-HD MA       eng (English)           817,442                 5 893                   602 115 384     3 399 885
00014.M2TS      4608 (0x1200)   0x90            PGS             rus (Russian)           817,442                 5                       484 459         2 984
00014.M2TS      4609 (0x1201)   0x90            PGS             eng (English)           817,442                 12                      1 203 674       6 922
00015.M2TS      4113 (0x1011)   0x1B            AVC                                     70,153                  27 036                  237 084 725     1 289 473
00015.M2TS      4352 (0x1100)   0x83            TrueHD          rus (Russian)           70,153                  2 412                   21 153 824      182 648
00015.M2TS      4353 (0x1101)   0x86            DTS-HD MA       eng (English)           70,153                  5 301                   46 482 764      263 715
00015.M2TS      4608 (0x1200)   0x90            PGS             rus (Russian)           70,153                  20                      178 089         1 079
00015.M2TS      4609 (0x1201)   0x90            PGS             eng (English)           70,153                  50                      437 330         2 507
00016.M2TS      4113 (0x1011)   0x1B            AVC                                     1515,764                26 870                  5 090 989 619   27 689 663
00016.M2TS      4352 (0x1100)   0x83            TrueHD          rus (Russian)           1515,764                2 649                   501 836 072     3 880 795
00016.M2TS      4353 (0x1101)   0x86            DTS-HD MA       eng (English)           1515,764                5 658                   1 072 011 708   6 062 165
00016.M2TS      4608 (0x1200)   0x90            PGS             rus (Russian)           1515,764                1                       273 737         1 700
00016.M2TS      4609 (0x1201)   0x90            PGS             eng (English)           1515,764                4                       693 048         4 046
Review: hq-films.ws
Screenshots:
image host image host image host image host
+/-Czech Blu-Ray (Released 4/8/2009)
DISC INFO:

Disc Title:     rambo
Disc Size:      17,122,873,808 bytes
Protection:     AACS
BD-Java:        No
BDInfo:         0.5.2

PLAYLIST REPORT:

Name:                   00000.MPLS
Size:                   16,861,753,344 bytes
Length:                 1:30:56 (h:m:s)
Total Bitrate:          24.72 Mbps
Description:

VIDEO:

Codec                   Bitrate             Description
-----                   -------             -----------
VC-1 Video              18023 kbps          1080p / 23.976 fps / 16:9 / Advanced Profile 3

AUDIO:

Codec                           Language        Bitrate         Description
-----                           --------        -------         -----------
DTS-HD Master Audio             English         2627 kbps       5.1 / 48 kHz / 2627 kbps / 16-bit (DTS Core: 5.1 / 48 kHz / 1509 kbps / 16-bit)
DTS-HD Master Audio             Czech           2432 kbps       5.1 / 48 kHz / 2432 kbps / 16-bit (DTS Core: 5.1 / 48 kHz / 1509 kbps / 16-bit)

SUBTITLES:

Codec                           Language        Bitrate         Description
-----                           --------        -------         -----------
Presentation Graphics           Czech           78.628 kbps

FILES:

Name            Time In         Length          Size            Total Bitrate
----            -------         ------          ----            -------------
00000.M2TS      0:00:00.000     1:30:55.450     16,861,691,904  24,726
00005.M2TS      1:30:55.450     0:00:01.000     61,440          491

CHAPTERS:

Number          Time In         Length          Avg Video Rate  Max 1-Sec Rate  Max 1-Sec Time  Max 5-Sec Rate  Max 5-Sec Time  Max 10Sec Rate  Max 10Sec Time  Avg Frame Size  Max Frame Size  Max Frame Time
------          -------         ------          --------------  --------------  --------------  --------------  --------------  --------------  --------------  --------------  --------------  --------------
1               0:00:00.000     0:06:24.967     14,822 kbps     37,748 kbps     00:06:23.007    36,773 kbps     00:06:19.754    35,849 kbps     00:06:14.916    77,986 bytes    464,802 bytes   00:04:02.075
2               0:06:24.967     0:07:52.305     18,788 kbps     31,284 kbps     00:06:37.021    25,864 kbps     00:13:17.963    25,471 kbps     00:13:16.962    97,949 bytes    304,283 bytes   00:09:56.721
3               0:14:17.273     0:07:31.409     18,905 kbps     33,641 kbps     00:17:56.575    30,641 kbps     00:17:53.947    27,165 kbps     00:17:53.947    98,560 bytes    302,036 bytes   00:17:56.867
4               0:21:48.682     0:08:21.626     16,357 kbps     35,847 kbps     00:27:43.787    28,249 kbps     00:27:40.659    24,305 kbps     00:29:02.949    85,278 bytes    450,753 bytes   00:22:36.855
5               0:30:10.308     0:09:43.165     16,128 kbps     36,050 kbps     00:32:45.838    28,265 kbps     00:36:23.598    26,696 kbps     00:31:13.955    84,163 bytes    455,800 bytes   00:36:25.725
6               0:39:53.474     0:09:08.464     17,215 kbps     38,339 kbps     00:47:46.863    32,711 kbps     00:46:52.392    31,240 kbps     00:46:50.307    89,753 bytes    552,130 bytes   00:44:47.976
7               0:49:01.939     0:09:13.719     23,399 kbps     45,284 kbps     00:56:43.233    36,989 kbps     00:54:19.589    35,336 kbps     00:55:29.409    121,991 bytes   487,688 bytes   00:54:15.752
8               0:58:15.658     0:07:31.659     20,940 kbps     43,979 kbps     01:05:34.972    32,809 kbps     01:05:42.313    27,394 kbps     01:03:05.907    109,172 bytes   509,453 bytes   01:03:32.391
9               1:05:47.318     0:05:03.594     20,366 kbps     40,949 kbps     01:08:22.765    36,704 kbps     01:08:21.680    30,061 kbps     01:08:21.597    106,181 bytes   508,118 bytes   01:08:57.550
10              1:10:50.913     0:04:54.669     23,555 kbps     50,020 kbps     01:11:49.680    34,817 kbps     01:13:46.463    33,207 kbps     01:14:20.664    122,805 bytes   583,448 bytes   01:14:32.843
11              1:15:45.582     0:04:21.344     16,022 kbps     33,437 kbps     01:18:35.293    25,652 kbps     01:18:35.168    23,355 kbps     01:16:21.159    83,531 bytes    495,753 bytes   01:18:36.294
12              1:20:06.927     0:10:48.522     13,030 kbps     27,966 kbps     01:25:02.597    27,076 kbps     01:22:57.847    26,646 kbps     01:24:53.505    68,026 bytes    488,036 bytes   01:25:02.180
13              1:30:55.450     0:00:01.001     285 kbps        0 kbps          00:00:00.000    0 kbps          00:00:00.000    0 kbps          00:00:00.000    2,746 bytes     9,236 bytes     01:30:55.867

STREAM DIAGNOSTICS:

File            PID             Type            Codec           Language                Seconds                 Bitrate                 Bytes           Packets
----            ---             ----            -----           --------                --------------          --------------          -------------   -----
00000.M2TS      4113 (0x1011)   0xEA            VC-1                                    5455.325                18,027                  12,292,702,517  66,887,093
00000.M2TS      4352 (0x1100)   0x86            DTS-HD MA       eng (English)           5455.325                2,628                   1,791,911,980   10,587,598
00000.M2TS      4353 (0x1101)   0x86            DTS-HD MA       ces (Czech)             5455.325                2,432                   1,658,469,308   9,865,731
00000.M2TS      4608 (0x1200)   0x90            PGS             ces (Czech)             5455.325                79                      53,628,537      298,103
00005.M2TS      4113 (0x1011)   0xEA            VC-1                                    0.876                   410                     44,933          262             
Review:
Screenshots:
image host image host image host image host
+/-Dutch Blu-Ray (Released 7/18/2008)
DISC INFO:

Disc Title:     
Disc Size:      24,834,982,480 bytes
Protection:     AACS
BD-Java:        No
BDInfo:         0.5.3

PLAYLIST REPORT:

Name:                   00000.MPLS
Length:                 1:30:55 (h:m:s)
Size:                   19,484,811,264 bytes
Total Bitrate:          28.57 Mbps

VIDEO:

Codec                   Bitrate             Description     
-----                   -------             -----------     
VC-1 Video              23516 kbps          1080p / 23.976 fps / 16:9 / Advanced Profile 3

AUDIO:

Codec                           Language        Bitrate         Description     
-----                           --------        -------         -----------     
DTS-HD Master Audio             English         2586 kbps       5.1 / 48 kHz / 2586 kbps / 16-bit (DTS Core: 5.1 / 48 kHz / 1509 kbps / 16-bit)
Dolby Digital Audio             English         640 kbps        5.1 / 48 kHz / 640 kbps
Dolby Digital Audio             English         224 kbps        2.0 / 48 kHz / 224 kbps

SUBTITLES:

Codec                           Language        Bitrate         Description     
-----                           --------        -------         -----------     
Presentation Graphics           Dutch           14.283 kbps                     
Presentation Graphics           Dutch           43.683 kbps                     

FILES:

Name            Time In         Length          Size            Total Bitrate   
----            -------         ------          ----            -------------   
00029.M2TS      0:00:00.000     1:30:55.450     19,484,811,264  28,573          

CHAPTERS:

Number          Time In         Length          Avg Video Rate  Max 1-Sec Rate  Max 1-Sec Time  Max 5-Sec Rate  Max 5-Sec Time  Max 10Sec Rate  Max 10Sec Time  Avg Frame Size  Max Frame Size  Max Frame Time  
------          -------         ------          --------------  --------------  --------------  --------------  --------------  --------------  --------------  --------------  --------------  --------------  
1               0:00:00.000     0:06:26.094     20,938 kbps     50,321 kbps     00:05:51.309    39,199 kbps     00:05:50.308    36,604 kbps     00:03:28.875    109,150 bytes   712,417 bytes   00:04:04.035    
2               0:06:26.094     0:03:45.725     18,618 kbps     41,021 kbps     00:07:19.772    35,986 kbps     00:07:16.978    31,193 kbps     00:07:14.100    97,067 bytes    508,492 bytes   00:09:59.181    
3               0:10:11.819     0:04:06.788     15,727 kbps     34,383 kbps     00:11:38.114    29,095 kbps     00:11:37.488    24,212 kbps     00:11:37.405    81,992 bytes    523,443 bytes   00:11:40.950    
4               0:14:18.607     0:03:22.619     14,444 kbps     33,253 kbps     00:14:18.607    24,606 kbps     00:14:18.607    22,016 kbps     00:15:48.572    75,303 bytes    530,001 bytes   00:14:20.109    
5               0:17:41.226     0:04:08.331     16,383 kbps     41,171 kbps     00:17:55.866    37,355 kbps     00:17:54.907    31,282 kbps     00:17:54.907    85,412 bytes    524,176 bytes   00:17:58.327    
6               0:21:49.558     0:03:51.314     24,419 kbps     50,812 kbps     00:22:38.273    39,203 kbps     00:24:07.487    34,907 kbps     00:24:05.402    127,307 bytes   679,584 bytes   00:25:24.523    
7               0:25:40.872     0:04:37.527     26,961 kbps     54,065 kbps     00:27:56.925    38,180 kbps     00:27:41.659    34,890 kbps     00:29:38.359    140,560 bytes   636,731 bytes   00:27:49.709    
8               0:30:18.399     0:03:46.643     21,369 kbps     54,502 kbps     00:32:46.547    33,290 kbps     00:32:46.547    30,605 kbps     00:32:37.789    111,408 bytes   654,979 bytes   00:32:46.589    
9               0:34:05.043     0:02:16.761     21,794 kbps     31,953 kbps     00:35:31.587    29,668 kbps     00:34:22.185    26,716 kbps     00:34:20.058    113,624 bytes   548,418 bytes   00:36:21.804    
10              0:36:21.804     0:04:28.184     19,868 kbps     51,169 kbps     00:36:43.159    39,405 kbps     00:36:40.656    35,356 kbps     00:37:18.319    103,581 bytes   709,620 bytes   00:36:27.685    
11              0:40:49.989     0:04:57.755     26,312 kbps     50,574 kbps     00:44:55.317    38,469 kbps     00:44:06.268    36,518 kbps     00:44:05.768    137,178 bytes   724,113 bytes   00:44:11.273    
12              0:45:47.745     0:03:14.277     29,705 kbps     51,814 kbps     00:45:52.166    39,461 kbps     00:45:50.664    36,574 kbps     00:46:57.689    154,869 bytes   670,898 bytes   00:47:26.552    
13              0:49:02.022     0:04:32.188     22,298 kbps     47,599 kbps     00:53:32.459    37,932 kbps     00:51:24.831    35,152 kbps     00:53:23.909    116,254 bytes   623,389 bytes   00:50:49.755    
14              0:53:34.210     0:04:42.573     26,516 kbps     53,039 kbps     00:56:44.192    38,728 kbps     00:53:50.852    36,070 kbps     00:53:51.102    138,241 bytes   653,654 bytes   00:55:10.640    
15              0:58:16.784     0:03:21.743     20,443 kbps     42,820 kbps     00:59:18.596    31,691 kbps     00:59:10.129    30,150 kbps     00:59:10.171    106,579 bytes   580,099 bytes   00:59:18.638    
16              1:01:38.528     0:02:34.654     27,240 kbps     49,822 kbps     01:03:10.912    39,400 kbps     01:03:19.879    35,883 kbps     01:02:48.222    142,017 bytes   688,963 bytes   01:03:20.922    
17              1:04:13.182     0:04:18.925     25,851 kbps     54,320 kbps     01:06:00.873    39,029 kbps     01:04:19.772    36,524 kbps     01:06:31.696    134,774 bytes   848,156 bytes   01:06:53.134    
18              1:08:32.108     0:02:19.931     25,224 kbps     48,478 kbps     01:08:58.384    36,495 kbps     01:08:43.994    34,880 kbps     01:08:38.197    131,504 bytes   670,504 bytes   01:09:55.774    
19              1:10:52.039     0:09:16.305     27,946 kbps     56,205 kbps     01:17:00.824    39,247 kbps     01:16:27.457    35,393 kbps     01:13:42.668    145,699 bytes   756,040 bytes   01:15:59.513    
20              1:20:08.345     0:10:47.104     27,155 kbps     39,039 kbps     01:21:38.268    36,374 kbps     01:23:08.900    35,186 kbps     01:23:07.857    141,594 bytes   650,578 bytes   01:24:52.128    

STREAM DIAGNOSTICS:

File            PID             Type            Codec           Language                Seconds                 Bitrate                 Bytes           Packets         
----            ---             ----            -----           --------                --------------          --------------          -------------   -----           
00029.M2TS      4113 (0x1011)   0xEA            VC-1                                    5455.367                23,517                  16,036,504,424  87,233,635      
00029.M2TS      4352 (0x1100)   0x81            AC3             eng (English)           5455.367                640                     436,436,480     2,557,245       
00029.M2TS      4353 (0x1101)   0x86            DTS-HD MA       eng (English)           5455.367                2,586                   1,763,652,244   10,433,712      
00029.M2TS      4354 (0x1102)   0x81            AC3             eng (English)           5455.367                224                     152,767,104     852,495         
00029.M2TS      4608 (0x1200)   0x90            PGS             nld (Dutch)             5455.367                14                      9,740,224       55,605          
00029.M2TS      4609 (0x1201)   0x90            PGS             nld (Dutch)             5455.367                44                      29,789,139      167,919         
Screenshots:
image host image host image host image host
______________________________________________________
Comparison Review: The great thing about new films is that the transfer to Blu-ray can be top notch just because of how crisp the film is. This is generally the case with these releases of Rambo IV. The American, Aussie, and Russian BR's stood out in most reviews as they all shared the same AVC track. The differences betweem them arose in the special features and made up for the differences in total BR-50 size (between 26GB and 46GB).
     The other four transfers used VC-1 and were varied in result. The Frech BR got good reviews and although I could not grab any screens from it I tend to believe that with a clean print and a good bitrate that the reviews were correct. The German and Czech BR's used BR-25 discs and were generally held in low regard for their bad blacks and blocky rain scenes. Furthermore the Czech version is displayed in a 16:9 format that seems to have been achieved not through open matte as much as pan and scan (compare US screen two with Czech screen three).  The Dutch transfer looks comparable to the AVC transfer used on the US/AU/RU discs and I have hunted down a few frames to compare it to those transfers as well.
image host

No comments:

Post a Comment