Tuesday, June 5, 2012

A History of Violence

image host
Coming off of the spotlight that The Lord of the Rings granted Viggo Mortensen, we now have Viggo titles like Hidalgo, Eastern Promises, and A History of Violence. I first saw this movie when it came out on DVD and enjoyed it although I haven't bothered revisiting it in the ensuing 7 years.

There seem to be two different encodes that have been released by the studios. The USA one was released first by New Line Cinema. Entertainment in Video, who usually just buy the encodes from Warner and New Line, decided to try it for themselves and did a pretty good job.

Expand each title for disc info and screenshots by clicking the +/-
+/-US Blu-ray (Released 2/10/2009)-New Line
DISC INFO:

Disc Title:     HISTORY_OF_VIOLENCE_BD01
Disc Size:      23,070,782,323 bytes
Protection:     AACS
BD-Java:        No
BDInfo:         0.5.2

PLAYLIST REPORT:

Name:                   00002.MPLS
Size:                   19,590,955,008 bytes
Length:                 1:35:43 (h:m:s)
Total Bitrate:          27.29 Mbps
Description:            

VIDEO:

Codec                   Bitrate             Description     
-----                   -------             -----------     
VC-1 Video              22493 kbps          1080p / 23.976 fps / 16:9 / Advanced Profile 3

AUDIO:

Codec                           Language        Bitrate         Description     
-----                           --------        -------         -----------     
Dolby TrueHD Audio              English         1321 kbps       5.1 / 48 kHz / 1321 kbps / 16-bit (AC3 Core: 5.1 / 48 kHz / 640 kbps)
Dolby Digital Audio             English         640 kbps        5.1 / 48 kHz / 640 kbps
Dolby Digital Audio             English         192 kbps        2.0 / 48 kHz / 192 kbps / Dolby Surround

SUBTITLES:

Codec                           Language        Bitrate         Description     
-----                           --------        -------         -----------     
Presentation Graphics           English         24.268 kbps                     
Presentation Graphics           Spanish         21.301 kbps                     

FILES:

Name            Time In         Length          Size            Total Bitrate   
----            -------         ------          ----            -------------   
00002.M2TS      0:00:00.000     1:35:43.404     19,590,955,008  27,288          

CHAPTERS:

Number          Time In         Length          Avg Video Rate  Max 1-Sec Rate  Max 1-Sec Time  Max 5-Sec Rate  Max 5-Sec Time  Max 10Sec Rate  Max 10Sec Time  Avg Frame Size  Max Frame Size  Max Frame Time  
------          -------         ------          --------------  --------------  --------------  --------------  --------------  --------------  --------------  --------------  --------------  --------------  
1               0:00:00.000     0:06:05.573     19,681 kbps     57,515 kbps     00:00:19.477    28,094 kbps     00:05:12.895    25,619 kbps     00:05:08.099    102,760 bytes   461,748 bytes   00:00:19.644    
2               0:06:05.573     0:04:36.776     20,809 kbps     41,088 kbps     00:06:37.480    29,735 kbps     00:06:34.852    27,260 kbps     00:06:29.430    108,491 bytes   325,152 bytes   00:06:32.392    
3               0:10:42.350     0:01:25.502     18,758 kbps     39,859 kbps     00:11:08.292    35,761 kbps     00:11:07.583    31,283 kbps     00:11:04.246    97,798 bytes    625,401 bytes   00:11:39.448    
4               0:12:07.852     0:09:13.094     25,634 kbps     36,861 kbps     00:16:28.320    31,497 kbps     00:18:53.298    30,928 kbps     00:20:48.538    133,643 bytes   309,205 bytes   00:14:50.556    
5               0:21:20.946     0:03:45.099     22,173 kbps     37,897 kbps     00:23:22.734    28,319 kbps     00:21:44.886    27,542 kbps     00:21:41.383    115,599 bytes   293,390 bytes   00:23:23.610    
6               0:25:06.046     0:04:02.116     24,098 kbps     34,668 kbps     00:27:11.921    32,092 kbps     00:27:11.087    31,189 kbps     00:27:09.919    125,637 bytes   300,778 bytes   00:29:08.121    
7               0:29:08.163     0:09:12.843     20,280 kbps     29,603 kbps     00:34:18.389    26,751 kbps     00:34:15.094    25,053 kbps     00:37:50.518    105,729 bytes   276,778 bytes   00:33:26.295    
8               0:38:21.007     0:06:08.117     19,783 kbps     29,720 kbps     00:40:24.213    26,977 kbps     00:39:27.406    25,971 kbps     00:39:22.401    103,138 bytes   415,291 bytes   00:40:38.310    
9               0:44:29.124     0:03:38.176     20,124 kbps     26,592 kbps     00:47:59.084    24,126 kbps     00:45:08.622    23,202 kbps     00:47:55.038    104,916 bytes   306,414 bytes   00:46:07.181    
10              0:48:07.301     0:04:01.866     21,007 kbps     34,504 kbps     00:49:27.089    31,075 kbps     00:49:31.718    30,139 kbps     00:49:26.713    109,519 bytes   289,099 bytes   00:49:25.379    
11              0:52:09.167     0:05:53.186     18,889 kbps     32,401 kbps     00:55:44.549    27,967 kbps     00:55:32.287    26,370 kbps     00:55:31.453    98,478 bytes    487,939 bytes   00:55:45.383    
12              0:58:02.353     0:03:44.349     22,688 kbps     31,032 kbps     00:58:36.846    27,143 kbps     01:00:52.857    26,612 kbps     01:00:48.186    118,284 bytes   460,860 bytes   01:01:46.703    
13              1:01:46.703     0:08:27.340     21,876 kbps     37,751 kbps     01:07:54.779    33,158 kbps     01:08:04.038    32,867 kbps     01:08:05.581    114,052 bytes   471,805 bytes   01:01:56.587    
14              1:10:14.043     0:04:57.005     25,249 kbps     41,491 kbps     01:12:26.842    35,826 kbps     01:12:07.614    34,038 kbps     01:12:03.027    131,634 bytes   308,375 bytes   01:12:45.819    
15              1:15:11.048     0:12:06.767     25,579 kbps     39,459 kbps     01:24:35.320    34,160 kbps     01:16:05.102    33,116 kbps     01:15:27.731    133,355 bytes   428,721 bytes   01:24:31.524    
16              1:27:17.815     0:04:30.687     21,455 kbps     35,401 kbps     01:31:43.080    29,018 kbps     01:31:39.285    27,525 kbps     01:28:39.188    111,857 bytes   251,949 bytes   01:28:53.995    
17              1:31:48.503     0:03:54.901     29,396 kbps     35,929 kbps     01:32:55.027    34,594 kbps     01:32:53.192    34,310 kbps     01:32:47.436    153,692 bytes   372,059 bytes   01:34:48.933    

STREAM DIAGNOSTICS:

File            PID             Type            Codec           Language                Seconds                 Bitrate                 Bytes           Packets         
----            ---             ----            -----           --------                --------------          --------------          -------------   -----           
00002.M2TS      4113 (0x1011)   0xEA            VC-1                                    5743.279                22,494                  16,148,547,434  87,846,928      
00002.M2TS      4352 (0x1100)   0x81            AC3             eng (English)           5743.279                640                     459,473,920     2,692,230       
00002.M2TS      4353 (0x1101)   0x83            TrueHD          eng (English)           5743.279                1,961                   1,407,721,084   10,217,171      
00002.M2TS      4354 (0x1102)   0x81            AC3             eng (English)           5743.279                192                     137,842,176     897,410         
00002.M2TS      4608 (0x1200)   0x90            PGS             eng (English)           5743.279                24                      17,422,433      100,971         
00002.M2TS      4609 (0x1201)   0x90            PGS             spa (Spanish)           5743.279                21                      15,292,273      89,076
Review: DVDbeaver.com/
Screenshots:
image host image host image host image host image host image host image host image host

+/-UK Blu-ray (Released 3/2/2009)-Entertainment in Video
 DISC INFO:

Disc Title:     A History of Violence 2005 Blu-ray UK 1080p VC-1 TrueHD
Disc Size:      19.392.493.528 bytes
Protection:     AACS
BD-Java:        No
BDInfo:         0.5.2

PLAYLIST REPORT:

Name:                   00000.MPLS
Size:                   16.472.518.656 bytes
Length:                 1:35:41 (h:m:s)
Total Bitrate:          22,95 Mbps
Description:            

VIDEO:

Codec                   Bitrate             Description     
-----                   -------             -----------     
VC-1 Video              18406 kbps          1080p / 23,976 fps / 16:9 / Advanced Profile 3

AUDIO:

Codec                           Language        Bitrate         Description     
-----                           --------        -------         -----------     
Dolby TrueHD Audio              English         1212 kbps       5.1 / 48 kHz / 1212 kbps / 16-bit (AC3 Core: 5.1 / 48 kHz / 640 kbps)
Dolby Digital Audio             English         640 kbps        5.1 / 48 kHz / 640 kbps
Dolby Digital Audio             English         224 kbps        2.0 / 48 kHz / 224 kbps

SUBTITLES:

Codec                           Language        Bitrate         Description     
-----                           --------        -------         -----------     
Presentation Graphics           English         22,504 kbps                     

FILES:

Name            Time In         Length          Size            Total Bitrate   
----            -------         ------          ----            -------------   
00000.M2TS      0:00:00.000     1:35:41.402     16.472.518.656  22.953          

CHAPTERS:

Number          Time In         Length          Avg Video Rate  Max 1-Sec Rate  Max 1-Sec Time  Max 5-Sec Rate  Max 5-Sec Time  Max 10Sec Rate  Max 10Sec Time  Avg Frame Size  Max Frame Size  Max Frame Time  
------          -------         ------          --------------  --------------  --------------  --------------  --------------  --------------  --------------  --------------  --------------  --------------  
1               0:00:00.000     0:06:05.573     24.219 kbps     41.416 kbps     00:04:08.414    36.428 kbps     00:04:08.414    34.753 kbps     00:04:06.329    126.252 bytes   438.641 bytes   00:04:08.665    
2               0:06:05.573     0:04:36.776     21.900 kbps     38.721 kbps     00:09:17.515    32.996 kbps     00:09:16.180    31.342 kbps     00:09:17.515    114.176 bytes   425.223 bytes   00:09:53.009    
3               0:10:42.350     0:01:25.502     32.015 kbps     49.616 kbps     00:11:36.320    37.706 kbps     00:11:32.608    34.835 kbps     00:11:02.244    166.913 bytes   789.298 bytes   00:11:18.260    
4               0:12:07.852     0:09:11.092     14.169 kbps     30.096 kbps     00:13:49.119    22.247 kbps     00:13:32.478    21.254 kbps     00:12:07.852    73.873 bytes    315.441 bytes   00:13:49.161    
5               0:21:18.944     0:03:45.099     19.111 kbps     28.733 kbps     00:24:16.163    24.028 kbps     00:22:45.655    22.409 kbps     00:22:24.051    99.637 bytes    341.363 bytes   00:22:01.194    
6               0:25:04.044     0:04:04.118     16.624 kbps     30.395 kbps     00:25:59.641    22.411 kbps     00:26:06.856    21.227 kbps     00:26:05.564    86.667 bytes    360.053 bytes   00:26:00.392    
7               0:29:08.163     0:09:12.843     21.162 kbps     40.338 kbps     00:33:25.586    33.278 kbps     00:35:01.224    32.164 kbps     00:34:56.761    110.330 bytes   445.746 bytes   00:38:18.921    
8               0:38:21.007     0:06:08.117     20.690 kbps     42.475 kbps     00:40:35.850    36.823 kbps     00:40:31.846    32.669 kbps     00:40:29.176    107.866 bytes   548.747 bytes   00:40:29.260    
9               0:44:29.124     0:03:38.176     22.826 kbps     38.623 kbps     00:44:48.394    34.466 kbps     00:44:47.059    32.301 kbps     00:44:44.765    119.006 bytes   427.083 bytes   00:44:49.144    
10              0:48:07.301     0:04:01.866     19.866 kbps     31.566 kbps     00:50:34.072    27.727 kbps     00:50:18.306    26.447 kbps     00:50:18.306    103.573 bytes   368.357 bytes   00:50:18.390    
11              0:52:09.167     0:05:53.186     20.988 kbps     37.264 kbps     00:55:41.588    30.882 kbps     00:55:38.543    28.408 kbps     00:55:34.539    109.422 bytes   530.263 bytes   00:55:41.629    
12              0:58:02.353     0:03:44.349     19.660 kbps     33.487 kbps     01:01:44.617    28.694 kbps     01:01:41.698    26.249 kbps     01:01:36.693    102.496 bytes   473.794 bytes   01:01:45.326    
13              1:01:46.703     0:08:27.340     19.205 kbps     48.558 kbps     01:01:59.173    38.581 kbps     01:03:44.362    34.730 kbps     01:01:57.880    100.124 bytes   642.937 bytes   01:01:49.330    
14              1:10:14.043     0:04:57.005     14.733 kbps     34.739 kbps     01:12:17.499    27.197 kbps     01:12:16.206    25.322 kbps     01:12:14.663    76.813 bytes    353.880 bytes   01:12:17.791    
15              1:15:11.048     0:12:06.767     12.645 kbps     22.662 kbps     01:27:16.397    16.993 kbps     01:20:44.631    16.083 kbps     01:20:41.837    65.926 bytes    322.162 bytes   01:27:15.772    
16              1:27:17.815     0:04:30.687     16.689 kbps     28.787 kbps     01:27:31.621    26.181 kbps     01:27:58.898    25.600 kbps     01:27:54.227    87.009 bytes    356.198 bytes   01:27:43.675    
17              1:31:48.503     0:03:52.899     13.326 kbps     23.479 kbps     01:35:14.583    22.146 kbps     01:35:11.288    20.272 kbps     01:35:08.786    69.489 bytes    261.260 bytes   01:35:11.997    

STREAM DIAGNOSTICS:

File            PID             Type            Codec           Language                Seconds                 Bitrate                 Bytes           Packets         
----            ---             ----            -----           --------                --------------          --------------          -------------   -----           
00000.M2TS      4113 (0x1011)   0xEA            VC-1                                    5741,319                18.406                  13.209.460.946  71.872.957      
00000.M2TS      4352 (0x1100)   0x81            AC3             eng (English)           5741,319                640                     459.312.640     2.691.285       
00000.M2TS      4353 (0x1101)   0x83            TrueHD          eng (English)           5741,319                1.852                   1.329.422.528   10.047.084      
00000.M2TS      4354 (0x1102)   0x81            AC3             eng (English)           5741,319                224                     160.759.424     897.095         
00000.M2TS      4608 (0x1200)   0x90            PGS             eng (English)           5741,319                23                      16.150.251      93.572          
Review: (Aussie) Hifi-Writer.com
Screenshots:
image host image host image host image host image host image host image host image host

As you can see in the pictures, the USA encoding by New Line used heavy DNR and took out most of the detail. Some describe it as a "wax museum." The lower bitrate, UK version is a clear winner. Audio is the same on each disc.
*Note that the Aussie version shares the same encode as the UK version. The Canadian version seems to be the same as well assuming this is the BDInfo for it: here
image host

Wednesday, May 30, 2012

Site Maintenance

I realize the pictures have been down for a few months now. The website is still getting good traffic, so I'm switching over to a new image host (imgbox.com).

Sunday, May 9, 2010

Blade Trinity

image host
Nothing beats vampires, half vampires, Dracula himself, and of course Wesley Snipes.... well the important thing is that its on Blu-ray and the versions offer a few different looks.  There is a Canadian release by Alliance and a Dutch release by E1 Entertainment Benelux.  Both of them are on single layer Blu-ray discs but still manage to have bitrates over 20 mbps. 

Expand each title for disc info and screenshots by clicking the +/-
+/-Canada Blu-ray (Released 4/6/2010)-Alliance
Total   Video                                             
Title                                                           Codec   Length  Movie Size      Disc Size       Bitrate Bitrate Main Audio Track                          Secondary Audio Track
-----                                                           ------  ------- --------------  --------------  ------- ------- ------------------                        ---------------------
00004.MPLS                                                      AVC     1:52:52 17,898,584,064  17,967,753,051  21.14   15.00   DTS-HD Master 5.1 4042Kbps (48kHz/24-bit) DD AC3 5.1 448Kbps

DISC INFO:

Disc Title:     
Disc Size:      17,967,753,051 bytes
Protection:     AACS
BD-Java:        No
BDInfo:         0.5.3

PLAYLIST REPORT:

Name:                   00004.MPLS
Length:                 1:52:52 (h:m:s)
Size:                   17,898,584,064 bytes
Total Bitrate:          21.14 Mbps

VIDEO:

Codec                   Bitrate             Description     
-----                   -------             -----------     
MPEG-4 AVC Video        15000 kbps          1080p / 23.976 fps / 16:9 / High Profile 4.1

AUDIO:

Codec                           Language        Bitrate         Description     
-----                           --------        -------         -----------     
DTS-HD Master Audio             English         4042 kbps       5.1 / 48 kHz / 4042 kbps / 24-bit (DTS Core: 5.1 / 48 kHz / 1509 kbps / 24-bit)
Dolby Digital Audio             English         448 kbps        5.1 / 48 kHz / 448 kbps
Dolby Digital Audio             French          448 kbps        5.1 / 48 kHz / 448 kbps

SUBTITLES:

Codec                           Language        Bitrate         Description     
-----                           --------        -------         -----------     
Presentation Graphics           French          0.138 kbps                      

FILES:

Name            Time In         Length          Size            Total Bitrate   
----            -------         ------          ----            -------------   
00004.M2TS      0:00:00.000     1:52:52.682     17,898,584,064  21,142          

CHAPTERS:

Number          Time In         Length          Avg Video Rate  Max 1-Sec Rate  Max 1-Sec Time  Max 5-Sec Rate  Max 5-Sec Time  Max 10Sec Rate  Max 10Sec Time  Avg Frame Size  Max Frame Size  Max Frame Time  
------          -------         ------          --------------  --------------  --------------  --------------  --------------  --------------  --------------  --------------  --------------  --------------  
1               0:00:00.000     0:10:25.916     16,029 kbps     41,909 kbps     00:00:20.895    33,802 kbps     00:00:18.643    24,197 kbps     00:08:23.878    83,560 bytes    533,170 bytes   00:00:21.688    
2               0:10:25.916     0:07:16.477     13,779 kbps     27,656 kbps     00:12:46.640    24,298 kbps     00:12:42.678    22,641 kbps     00:12:38.382    71,838 bytes    372,169 bytes   00:13:20.049    
3               0:17:42.394     0:07:30.199     16,468 kbps     40,931 kbps     00:24:24.379    27,586 kbps     00:24:23.253    24,946 kbps     00:24:23.587    85,856 bytes    508,724 bytes   00:24:24.629    
4               0:25:12.594     0:05:32.123     15,008 kbps     23,090 kbps     00:30:18.650    19,217 kbps     00:28:57.736    18,539 kbps     00:28:58.653    78,245 bytes    277,503 bytes   00:25:16.389    
5               0:30:44.717     0:07:13.599     18,578 kbps     35,009 kbps     00:32:14.057    30,873 kbps     00:32:10.053    28,064 kbps     00:32:08.718    96,857 bytes    388,444 bytes   00:33:29.465    
6               0:37:58.317     0:08:00.188     14,745 kbps     35,356 kbps     00:43:08.127    26,446 kbps     00:43:04.582    25,019 kbps     00:43:03.664    76,873 bytes    409,058 bytes   00:42:32.883    
7               0:45:58.505     0:05:36.961     12,713 kbps     24,620 kbps     00:51:16.740    20,806 kbps     00:51:15.363    19,599 kbps     00:50:51.465    66,280 bytes    320,628 bytes   00:50:45.709    
8               0:51:35.467     0:08:11.866     16,358 kbps     32,989 kbps     00:54:17.087    27,627 kbps     00:54:13.291    25,639 kbps     00:54:11.498    85,283 bytes    393,776 bytes   00:57:47.755    
9               0:59:47.333     0:06:40.274     13,307 kbps     23,332 kbps     01:04:20.565    19,185 kbps     01:03:07.533    17,703 kbps     01:03:03.279    69,375 bytes    311,030 bytes   01:04:01.712    
10              1:06:27.608     0:06:56.207     13,909 kbps     27,837 kbps     01:10:44.281    21,191 kbps     01:11:02.383    19,036 kbps     01:11:02.216    72,516 bytes    298,469 bytes   01:11:12.059    
11              1:13:23.816     0:08:13.326     14,296 kbps     39,309 kbps     01:20:54.349    20,394 kbps     01:13:37.287    19,847 kbps     01:14:45.230    74,532 bytes    366,114 bytes   01:20:54.724    
12              1:21:37.142     0:05:42.967     16,120 kbps     36,262 kbps     01:26:48.912    28,374 kbps     01:26:46.242    21,435 kbps     01:26:41.613    84,043 bytes    367,068 bytes   01:22:42.707    
13              1:27:20.109     0:05:06.055     18,025 kbps     37,546 kbps     01:29:15.558    27,322 kbps     01:30:06.567    24,104 kbps     01:30:30.591    93,972 bytes    427,568 bytes   01:32:00.806    
14              1:32:26.165     0:06:54.414     19,095 kbps     35,187 kbps     01:35:50.327    27,734 kbps     01:35:49.118    25,401 kbps     01:34:07.266    99,551 bytes    362,212 bytes   01:36:32.787    
15              1:39:20.579     0:05:04.679     13,799 kbps     27,297 kbps     01:44:20.045    24,150 kbps     01:44:19.086    19,293 kbps     01:43:23.572    71,943 bytes    298,923 bytes   01:41:54.942    
16              1:44:25.259     0:08:27.423     8,568 kbps      36,442 kbps     01:45:43.003    26,795 kbps     01:45:41.376    24,000 kbps     01:45:36.413    44,674 bytes    533,853 bytes   01:46:07.402    

STREAM DIAGNOSTICS:

File            PID             Type            Codec           Language                Seconds                 Bitrate                 Bytes           Packets         
----            ---             ----            -----           --------                --------------          --------------          -------------   -----           
00004.M2TS      4113 (0x1011)   0x1B            AVC                                     6772.516                15,000                  12,698,636,649  69,109,417      
00004.M2TS      4352 (0x1100)   0x86            DTS-HD MA       eng (English)           6772.516                4,042                   3,421,660,340   19,651,796      
00004.M2TS      4353 (0x1101)   0x81            AC3             eng (English)           6772.516                448                     379,273,216     2,116,480       
00004.M2TS      4354 (0x1102)   0x81            AC3             fra (French)            6772.516                448                     379,273,216     2,116,480       
00004.M2TS      4608 (0x1200)   0x90            PGS             fra (French)            6772.516                0                       117,145         688             
image host image host image host image host image host image host image host image host
+/-Netherlands Blu-ray (Released 8/4/2009)-E1 Entertainment Benelux
Total   Video                                             
Title                                                           Codec   Length  Movie Size      Disc Size       Bitrate Bitrate Main Audio Track                          Secondary Audio Track
-----                                                           ------  ------- --------------  --------------  ------- ------- ------------------                        ---------------------
00000.MPLS                                                      VC-1    1:52:55 20,303,892,480  20,731,441,487  23.97   20.54   DTS-HD Master 5.1 2116Kbps (48kHz/16-bit) 
DISC INFO:

Disc Title:     
Disc Size:      20,731,441,487 bytes
Protection:     AACS
BD-Java:        No
BDInfo:         0.5.3

PLAYLIST REPORT:

Name:                   00000.MPLS
Length:                 1:52:55 (h:m:s)
Size:                   20,303,892,480 bytes
Total Bitrate:          23.97 Mbps

VIDEO:

Codec                   Bitrate             Description     
-----                   -------             -----------     
VC-1 Video              20535 kbps          1080p / 23.976 fps / 16:9 / Advanced Profile 3

AUDIO:

Codec                           Language        Bitrate         Description     
-----                           --------        -------         -----------     
DTS-HD Master Audio             English         2116 kbps       5.1 / 48 kHz / 2116 kbps / 16-bit (DTS Core: 5.1 / 48 kHz / 1509 kbps / 16-bit)

SUBTITLES:

Codec                           Language        Bitrate         Description     
-----                           --------        -------         -----------     
Presentation Graphics           Dutch           21.890 kbps                     

FILES:

Name            Time In         Length          Size            Total Bitrate   
----            -------         ------          ----            -------------   
00000.M2TS      0:00:00.000     1:52:54.851     20,303,861,760  23,976          
00008.M2TS      1:52:54.851     0:00:01.000     30,720          246             

CHAPTERS:

Number          Time In         Length          Avg Video Rate  Max 1-Sec Rate  Max 1-Sec Time  Max 5-Sec Rate  Max 5-Sec Time  Max 10Sec Rate  Max 10Sec Time  Avg Frame Size  Max Frame Size  Max Frame Time  
------          -------         ------          --------------  --------------  --------------  --------------  --------------  --------------  --------------  --------------  --------------  --------------  
1               0:00:00.000     0:10:27.293     21,052 kbps     54,785 kbps     00:03:36.090    39,139 kbps     00:05:50.892    35,198 kbps     00:05:52.894    109,746 bytes   767,931 bytes   00:03:36.591    
2               0:10:27.293     0:10:38.220     19,422 kbps     40,483 kbps     00:20:02.075    34,975 kbps     00:12:42.887    33,225 kbps     00:12:39.133    101,258 bytes   481,877 bytes   00:12:47.850    
3               0:21:05.514     0:09:38.160     20,957 kbps     57,305 kbps     00:24:29.509    36,263 kbps     00:24:26.298    33,723 kbps     00:24:22.210    109,259 bytes   468,272 bytes   00:24:06.903    
4               0:30:43.675     0:13:02.615     21,678 kbps     43,122 kbps     00:32:14.265    39,435 kbps     00:32:10.428    35,728 kbps     00:32:08.801    113,021 bytes   539,143 bytes   00:42:34.093    
5               0:43:46.290     0:05:28.911     18,744 kbps     36,335 kbps     00:44:01.180    28,667 kbps     00:45:20.300    26,406 kbps     00:44:32.544    97,721 bytes    508,027 bytes   00:44:01.221    
6               0:49:15.202     0:10:31.589     23,564 kbps     44,525 kbps     00:54:34.145    39,441 kbps     00:54:13.541    36,062 kbps     00:54:12.415    122,852 bytes   519,448 bytes   00:57:47.213    
7               0:59:46.791     0:13:40.444     17,844 kbps     42,978 kbps     01:04:02.088    36,731 kbps     01:03:59.252    28,148 kbps     01:03:56.916    93,031 bytes    399,933 bytes   01:04:02.672    
8               1:13:27.236     0:08:09.280     19,283 kbps     50,743 kbps     01:20:54.516    29,571 kbps     01:19:07.617    26,099 kbps     01:19:06.908    100,535 bytes   399,110 bytes   01:19:15.208    
9               1:21:36.516     0:10:44.060     21,733 kbps     49,174 kbps     01:22:42.874    37,249 kbps     01:30:07.193    32,925 kbps     01:30:07.193    113,307 bytes   517,673 bytes   01:22:42.916    
10              1:32:20.576     0:08:01.689     22,767 kbps     47,645 kbps     01:35:50.578    34,927 kbps     01:35:47.742    30,020 kbps     01:35:47.324    118,695 bytes   515,569 bytes   01:36:29.909    
11              1:40:22.266     0:04:03.952     21,336 kbps     39,508 kbps     01:44:23.715    37,320 kbps     01:44:19.711    29,073 kbps     01:42:45.784    111,237 bytes   371,749 bytes   01:43:31.205    
12              1:44:26.218     0:08:28.633     18,026 kbps     61,336 kbps     01:45:45.422    39,774 kbps     01:46:19.998    36,476 kbps     01:46:20.999    93,988 bytes    712,063 bytes   01:45:46.340    
13              1:52:54.851     0:00:01.001     84 kbps         0 kbps          00:00:00.000    0 kbps          00:00:00.000    0 kbps          00:00:00.000    479 bytes       9,231 bytes     01:52:55.602    

STREAM DIAGNOSTICS:

File            PID             Type            Codec           Language                Seconds                 Bitrate                 Bytes           Packets         
----            ---             ----            -----           --------                --------------          --------------          -------------   -----           
00000.M2TS      4113 (0x1011)   0xEA            VC-1                                    6774.685                20,539                  17,392,994,577  94,624,514      
00000.M2TS      4352 (0x1100)   0x86            DTS-HD MA       eng (English)           6774.685                2,116                   1,791,856,220   10,792,608      
00000.M2TS      4608 (0x1200)   0x90            PGS             nld (Dutch)             6774.685                22                      18,540,247      105,184         
00008.M2TS      4113 (0x1011)   0xEA            VC-1                                    0.876                   181                     19,777          124             
image host image host image host image host image host image host image host image host
______________________________________________________________________
I have a tough time coming down on these. The Dutch encode seems to have a bit more detail but I'm not in love with the darker look of it. The audio has a much beefier bitrate on the Canadian disc. Its not obviously clear to me which to choose. Instead I'll hope for a US encode that makes use of a dual layer disc.
image host

Tuesday, March 9, 2010

Iron Man


Iron Man. I really enjoyed watching this movie in the theaters and after waiting for it to come out on Blu-ray I can still say the movie looks amazing. We are looking for perfection though and that is why we need to wade through these versions and pick out the best. There are 3 unique video transfers of this film that I know of. Paramount released it in the USA, Concorde Video released it in Germany, and Sony released it Spain. Thanks to some avid fans I didn't have to do much of the legwork in finding 1:1 comparison shots. The USA version will be overloaded with shots as it is the transfer that the other films are compared off of.
Expand each title for disc info and screenshots by clicking the +/-
+/-US Blu-ray (Released 9/30/2008)-Paramount Pictures
Total   Video                        
Title                                                           Codec   Length  Movie Size      Disc Size       Bitrate Bitrate Main Audio Track                          Secondary Audio Track
-----                                                           ------  ------- --------------  --------------  ------- ------- ------------------                        ---------------------
Iron Man                                                        AVC     2:06:01 33,442,940,928  47,226,615,602  35.38   27.13   Dolby TrueHD 5.1 3493Kbps (48kHz/24-bit)

DISC INFO:

Disc Title:     IRON_MAN_D1
Disc Size:      47,226,615,602 bytes
Protection:     AACS
BD-Java:        Yes

PLAYLIST REPORT:

Name:           00000.mpls
Size:           33,442,940,928 bytes
Length:         2:06:01 (h:m:s)
Total Bitrate:  35.38 Mbps
Description:

FILES:

Name            Size            Length          Time In         Time Out
----            ----            ------          -------         --------
00010.M2TS      33,442,940,928  2:06:01.679     0:00:00.000     2:06:01.679

VIDEO:

Codec               Bitrate         Description
-----               -------         -----------
MPEG-4 AVC Video    27127 kbps      1080p / 23.976fps / 16:9 / High Profile 4.1

AUDIO:

Codec                           Language        Bitrate         Description
-----                           --------        -------         -----------
Dolby TrueHD Audio              English         3493 kbps       5.1 / 48kHz / 24-bit / 3493kbps (AC3 Core: 5.1 / 48kHz / 640kbps)
Dolby Digital Audio             French          640 kbps        5.1 / 48kHz / 640kbps
Dolby Digital Audio             Spanish         640 kbps        5.1 / 48kHz / 640kbps

SUBTITLES:

Codec                           Language        Bitrate         Description
-----                           --------        -------         -----------
Presentation Graphics           English         35.573 kbps
Presentation Graphics           English         38.758 kbps
Presentation Graphics           English         0.347 kbps 
Presentation Graphics           French          32.937 kbps
Presentation Graphics           French          0.394 kbps 
Presentation Graphics           Portuguese      28.641 kbps
Presentation Graphics           Spanish         28.348 kbps
Presentation Graphics           Spanish         0.355 kbps 

CHAPTERS:

Number          Time            Length          Avg Video Rate  Max 1-Sec Rate  Max 1-Sec Time  Max 5-Sec Rate  Max 5-Sec Time  Max 10Sec Rate  Max 10Sec Time  Avg Frame Size  Max Frame Size  Max Frame Time
------          ----            ------          --------------  --------------  --------------  --------------  --------------  --------------  --------------  --------------  --------------  --------------
1               0:00:00.000     0:09:06.171     27,105 kbps     42,028 kbps     00:04:46.703    39,233 kbps     00:01:01.562    38,796 kbps     00:03:40.137    141,313 bytes   440,833 bytes   00:03:46.309
2               0:09:06.171     0:08:54.408     28,605 kbps     40,975 kbps     00:16:27.111    38,902 kbps     00:09:27.525    37,101 kbps     00:09:26.399    149,134 bytes   397,143 bytes   00:12:25.828
3               0:18:00.579     0:08:49.363     28,331 kbps     41,282 kbps     00:26:11.111    39,340 kbps     00:21:31.415    39,202 kbps     00:21:43.427    147,703 bytes   470,508 bytes   00:23:11.515
4               0:26:49.942     0:08:11.908     25,692 kbps     39,558 kbps     00:33:51.154    38,138 kbps     00:33:49.861    36,017 kbps     00:33:49.277    133,946 bytes   348,409 bytes   00:28:33.128
5               0:35:01.850     0:08:13.409     27,451 kbps     40,375 kbps     00:39:37.667    37,963 kbps     00:36:59.342    37,208 kbps     00:36:58.716    143,117 bytes   485,785 bytes   00:39:05.927
6               0:43:15.259     0:09:23.230     28,354 kbps     39,964 kbps     00:46:17.858    37,929 kbps     00:43:47.542    36,464 kbps     00:43:22.308    147,824 bytes   414,488 bytes   00:46:16.148
7               0:52:38.489     0:06:46.155     26,749 kbps     40,127 kbps     00:54:15.919    36,712 kbps     00:52:47.414    34,887 kbps     00:52:47.456    139,456 bytes   401,418 bytes   00:54:13.959
8               0:59:24.644     0:08:07.779     28,164 kbps     39,961 kbps     01:01:34.816    38,862 kbps     01:01:24.598    36,669 kbps     01:00:02.098    146,833 bytes   365,392 bytes   01:00:06.144
9               1:07:32.423     0:04:11.877     24,294 kbps     36,313 kbps     01:09:06.768    31,246 kbps     01:09:06.768    29,539 kbps     01:09:06.768    126,659 bytes   269,827 bytes   01:08:37.697
10              1:11:44.300     0:06:46.906     28,304 kbps     40,187 kbps     01:12:36.060    39,137 kbps     01:14:39.850    37,837 kbps     01:14:36.597    147,567 bytes   314,466 bytes   01:16:33.798
11              1:18:31.206     0:06:09.369     27,752 kbps     40,214 kbps     01:19:21.298    36,948 kbps     01:22:04.628    36,077 kbps     01:19:15.459    144,688 bytes   339,927 bytes   01:19:10.788
12              1:24:40.575     0:10:19.536     27,408 kbps     39,755 kbps     01:30:15.368    39,100 kbps     01:25:03.974    38,894 kbps     01:30:09.279    142,894 bytes   371,440 bytes   01:31:54.676
13              1:35:00.111     0:09:29.235     28,324 kbps     39,943 kbps     01:39:18.077    39,157 kbps     01:39:13.906    38,950 kbps     01:39:14.031    147,669 bytes   295,813 bytes   01:42:56.712
14              1:44:29.346     0:09:02.125     27,285 kbps     41,652 kbps     01:51:32.227    38,454 kbps     01:51:39.860    37,507 kbps     01:51:37.399    142,252 bytes   351,777 bytes   01:52:23.862
15              1:53:31.471     0:12:30.208     23,331 kbps     39,496 kbps     02:05:53.546    36,842 kbps     01:54:43.293    36,054 kbps     01:54:57.140    121,636 bytes   651,426 bytes   01:57:18.406

STREAM DIAGNOSTICS:

File            PID             Type            Codec           Lang. Code      Lang. Name      Seconds         Bytes           Packets         Bitrate
----            ---             ----            -----           ----------      ----------      -------         -----           -------         -------
00010.M2TS      4113 (0x1011)   0x1B            AVC                                             7561.68         25,640,859,498  139,458,463     27,127
00010.M2TS      4352 (0x1100)   0x83            TrueHD          eng             English         7561.68         3,906,616,616   26,483,704      4,133
00010.M2TS      4353 (0x1101)   0x81            AC3             fra             French          7561.68         604,935,680     3,544,545       640
00010.M2TS      4354 (0x1102)   0x81            AC3             spa             Spanish         7561.68         604,935,680     3,544,545       640
00010.M2TS      4608 (0x1200)   0x90            PGS             eng             English         7561.68         33,623,681      192,129         36
00010.M2TS      4609 (0x1201)   0x90            PGS             eng             English         7561.68         36,634,599      209,529         39
00010.M2TS      4610 (0x1202)   0x90            PGS             fra             French          7561.68         31,132,062      178,577         33
00010.M2TS      4611 (0x1203)   0x90            PGS             spa             Spanish         7561.68         26,794,442      154,569         28
00010.M2TS      4612 (0x1204)   0x90            PGS             por             Portuguese      7561.68         27,071,676      156,218         29
00010.M2TS      4613 (0x1205)   0x90            PGS             fra             French          7561.68         372,217         2,266           0
00010.M2TS      4614 (0x1206)   0x90            PGS             spa             Spanish         7561.68         335,859         2,062           0
00010.M2TS      4615 (0x1207)   0x90            PGS             eng             English         7561.68         328,150         2,014           0
Reviews: DVDBeaver.com HiDefDigest.com DVDTalk.com
Screenshots:

image host image host image host image host image host image host image host image host image host image host

+/-GER Blu-ray (Released 10/2/2008)-Concorde Video
Total   Video                          
Title                                                           Codec   Length  Movie Size      Disc Size       Bitrate Bitrate Main Audio Track                          Secondary Audio Track
-----                                                           ------  ------- --------------  --------------  ------- ------- ------------------                        ---------------------
00002.MPLS                                                      VC-1    2:05:57 23.622.715.392  46.265.438.913  25,00   17,98   DTS-HD Master 5.1 2125Kbps (48kHz/16-bit)

DISC INFO:

Disc Title:     IRON MAN
Disc Size:      46.265.438.913 bytes
Protection:     AACS
BD-Java:        Yes
BDInfo:         0.5.3

PLAYLIST REPORT:

Name:                   00002.MPLS
Length:                 2:05:57 (h:m:s)
Size:                   23.622.715.392 bytes
Total Bitrate:          25,00 Mbps

VIDEO:

Codec                   Bitrate             Description
-----                   -------             -----------
VC-1 Video              17978 kbps          1080p / 23,976 fps / 16:9 / Advanced Profile 3

AUDIO:

Codec                           Language        Bitrate         Description
-----                           --------        -------         -----------
DTS-HD Master Audio             English         2125 kbps       5.1 / 48 kHz / 2125 kbps / 16-bit (DTS Core: 5.1 / 48 kHz / 1509 kbps / 16-bit)
DTS-HD Master Audio             German          2181 kbps       5.1 / 48 kHz / 2181 kbps / 16-bit (DTS Core: 5.1 / 48 kHz / 1509 kbps / 16-bit)

SUBTITLES:

Codec                           Language        Bitrate         Description
-----                           --------        -------         -----------
Presentation Graphics           German          406,036 kbps 
Presentation Graphics           German          721,565 kbps 

FILES:

Name            Time In         Length          Size            Total Bitrate
----            -------         ------          ----            -------------
00000.M2TS      0:00:00.000     2:05:57.550     23.622.690.816  25.006
00001.M2TS      2:05:57.550     0:00:00.417     24.576          471

CHAPTERS:

Number          Time In         Length          Avg Video Rate  Max 1-Sec Rate  Max 1-Sec Time  Max 5-Sec Rate  Max 5-Sec Time  Max 10Sec Rate  Max 10Sec Time  Avg Frame Size  Max Frame Size  Max Frame Time
------          -------         ------          --------------  --------------  --------------  --------------  --------------  --------------  --------------  --------------  --------------  --------------
1               0:00:00.000     0:04:19.384     17.921 kbps     37.215 kbps     00:00:27.402    34.022 kbps     00:00:23.690    26.516 kbps     00:00:21.563    94.037 bytes    522.074 bytes   00:03:46.267
2               0:04:19.384     0:06:11.329     19.726 kbps     40.574 kbps     00:09:33.948    33.855 kbps     00:09:29.944    29.784 kbps     00:09:24.981    102.864 bytes   492.655 bytes   00:07:21.190
3               0:10:30.713     0:06:15.833     16.613 kbps     37.123 kbps     00:16:22.648    29.230 kbps     00:16:22.564    24.290 kbps     00:16:21.647    86.613 bytes    391.218 bytes   00:16:23.649
4               0:16:46.547     0:09:14.470     15.996 kbps     34.720 kbps     00:24:27.716    26.012 kbps     00:24:27.716    22.977 kbps     00:20:17.716    83.394 bytes    437.481 bytes   00:22:02.362
5               0:26:01.017     0:06:45.655     16.255 kbps     38.674 kbps     00:26:41.725    34.298 kbps     00:26:41.308    32.504 kbps     00:26:37.304    84.747 bytes    516.588 bytes   00:26:46.271
6               0:32:46.673     0:09:11.634     19.209 kbps     48.027 kbps     00:39:28.282    35.425 kbps     00:39:54.433    31.501 kbps     00:39:50.429    100.147 bytes   584.973 bytes   00:39:32.370
7               0:41:58.307     0:06:40.191     18.118 kbps     33.359 kbps     00:46:13.812    29.378 kbps     00:46:12.561    24.226 kbps     00:46:08.724    94.459 bytes    468.223 bytes   00:46:14.104
8               0:48:38.498     0:03:58.029     19.997 kbps     25.100 kbps     00:48:49.551    23.529 kbps     00:48:49.551    22.848 kbps     00:49:03.315    104.257 bytes   399.864 bytes   00:48:49.593
9               0:52:36.528     0:12:16.569     20.797 kbps     38.937 kbps     01:01:26.474    32.775 kbps     00:54:10.455    30.065 kbps     00:52:45.370    108.424 bytes   551.902 bytes   01:04:09.554
10              1:04:53.097     0:10:08.816     19.176 kbps     36.609 kbps     01:14:34.553    28.842 kbps     01:07:33.007    26.532 kbps     01:07:29.962    99.977 bytes    386.409 bytes   01:08:59.635
11              1:15:01.914     0:09:36.576     19.149 kbps     31.932 kbps     01:19:04.156    23.331 kbps     01:19:04.114    21.945 kbps     01:19:04.114    99.835 bytes    409.928 bytes   01:19:05.157
12              1:24:38.490     0:05:49.057     16.597 kbps     23.719 kbps     01:25:00.970    20.922 kbps     01:25:05.642    20.736 kbps     01:25:00.345    86.532 bytes    317.084 bytes   01:30:14.242
13              1:30:27.547     0:05:16.315     19.475 kbps     31.989 kbps     01:31:44.832    25.569 kbps     01:31:42.205    24.422 kbps     01:31:44.624    101.536 bytes   465.028 bytes   01:31:45.833
14              1:35:43.863     0:06:33.643     19.195 kbps     29.915 kbps     01:39:21.664    26.211 kbps     01:39:21.330    24.528 kbps     01:39:18.911    100.072 bytes   354.980 bytes   01:39:23.540
15              1:42:17.506     0:11:12.463     19.120 kbps     48.147 kbps     01:52:55.894    32.411 kbps     01:50:28.955    28.320 kbps     01:50:27.245    99.685 bytes    555.852 bytes   01:52:56.853
16              1:53:29.969     0:03:45.808     17.104 kbps     25.565 kbps     01:57:11.774    21.596 kbps     01:57:09.856    20.477 kbps     01:56:03.915    89.173 bytes    348.056 bytes   01:57:13.860
17              1:57:15.778     0:08:42.188     10.195 kbps     41.908 kbps     01:57:16.612    26.123 kbps     01:58:31.354    22.984 kbps     01:57:38.968    53.529 bytes    617.444 bytes   01:57:16.738

STREAM DIAGNOSTICS:

File            PID             Type            Codec           Language                Seconds                 Bitrate                 Bytes           Packets
----            ---             ----            -----           --------                --------------          --------------          -------------   -----
00000.M2TS      4113 (0x1011)   0xEA            VC-1                                    7557,383                17.979                  16.984.281.587  92.415.389
00000.M2TS      4352 (0x1100)   0x86            DTS-HD MA       deu (German)            7557,383                2.181                   2.060.714.032   12.392.169
00000.M2TS      4353 (0x1101)   0x86            DTS-HD MA       eng (English)           7557,383                2.125                   2.007.585.612   12.090.211
00000.M2TS      4608 (0x1200)   0x90            PGS             deu (German)            7557,383                406                     383.601.231     2.123.350
00000.M2TS      4609 (0x1201)   0x90            PGS             deu (German)            7557,383                722                     681.695.861     3.760.395
00001.M2TS      4113 (0x1011)   0xEA            VC-1                                    0,334                   372                     15.500          92
Reviews: DVD-Palace.de BlurayReviews.ch
Screenshots:

image host image host image host image host image host

+/-SPA Blu-ray (Released 9/29/2008)-Sony
Iron Man Spanish BD

VIDEO:

Codec Bitrate Description
----- ------- -----------
MPEG-4 AVC Video 25874 kbps 1080p / 23,976 fps / 16:9 / High Profile 4.1

AUDIO:

Codec Language Bitrate Description
----- -------- ------- -----------
Dolby TrueHD Audio English 3602 kbps 5.1 / 48 kHz / 3602 kbps / 24-bit (AC3 Core: 5.1 / 48 kHz / 640 kbps)
Dolby TrueHD Audio Spanish 1672 kbps 5.1 / 48 kHz / 1672 kbps / 16-bit (AC3 Core: 5.1 / 48 kHz / 640 kbps)
Dolby Digital Audio Catalan 640 kbps 5.1 / 48 kHz / 640 kbps

SUBTITLES:

Codec Language Bitrate
----- -------- -------
Presentation Graphics English 31,161 kbps
Presentation Graphics Spanish 24,879 kbps


Length: 2:05:59
Total Bitrate: 36,80 Mbps
Reviews: ZonaDVD.com
Screenshots:

image host image host image host image host image host +/-FR Blu-ray (Released 11/5/2008)-M6 Video
Title                                                           Codec   Length  Movie Size      Disc Size       Bitrate Bitrate Main Audio Track                          Secondary Audio Track
-----                                                           ------  ------- --------------  --------------  ------- ------- ------------------                        ---------------------
00009.MPLS                                                      AVC     2:06:13 29,983,082,496  46,045,751,129  31.67   21.84   DTS-HD Master 5.1 3924Kbps (48kHz/24-bit)

DISC INFO:

Disc Title:     
Disc Size:      46,045,751,129 bytes
Protection:     AACS
BD-Java:        Yes
BDInfo:         0.5.3

PLAYLIST REPORT:

Name:                   00009.MPLS
Length:                 2:06:13 (h:m:s)
Size:                   29,983,082,496 bytes
Total Bitrate:          31.67 Mbps

VIDEO:

Codec                   Bitrate             Description     
-----                   -------             -----------     
MPEG-4 AVC Video        21845 kbps          1080p / 23.976 fps / 16:9 / High Profile 4.1

AUDIO:

Codec                           Language        Bitrate         Description     
-----                           --------        -------         -----------     
DTS-HD Master Audio             English         3924 kbps       5.1 / 48 kHz / 3924 kbps / 24-bit (DTS Core: 5.1 / 48 kHz / 1509 kbps / 24-bit)
DTS-HD Master Audio             French          4003 kbps       5.1 / 48 kHz / 4003 kbps / 24-bit (DTS Core: 5.1 / 48 kHz / 1509 kbps / 24-bit)

SUBTITLES:

Codec                           Language        Bitrate         Description     
-----                           --------        -------         -----------     
Presentation Graphics           French          24.280 kbps                     
Presentation Graphics           French          22.803 kbps                     
Presentation Graphics           French          0.505 kbps                      
Presentation Graphics           French          0.000 kbps                      

FILES:

Name            Time In         Length          Size            Total Bitrate   
----            -------         ------          ----            -------------   
00007.M2TS      0:00:00.000     2:06:13.524     29,983,082,496  31,671          

CHAPTERS:

Number          Time In         Length          Avg Video Rate  Max 1-Sec Rate  Max 1-Sec Time  Max 5-Sec Rate  Max 5-Sec Time  Max 10Sec Rate  Max 10Sec Time  Avg Frame Size  Max Frame Size  Max Frame Time  
------          -------         ------          --------------  --------------  --------------  --------------  --------------  --------------  --------------  --------------  --------------  --------------  
1               0:00:00.000     0:04:23.221     21,996 kbps     32,887 kbps     00:03:35.506    30,021 kbps     00:00:51.926    29,180 kbps     00:00:47.672    114,659 bytes   497,554 bytes   00:03:45.016    
2               0:04:23.221     0:04:51.833     23,445 kbps     33,426 kbps     00:08:47.360    31,538 kbps     00:08:47.151    30,851 kbps     00:08:46.609    122,234 bytes   531,189 bytes   00:07:29.198    
3               0:09:15.054     0:03:17.739     22,914 kbps     32,852 kbps     00:09:41.581    29,661 kbps     00:10:39.597    28,432 kbps     00:10:37.511    119,465 bytes   393,681 bytes   00:09:43.291    
4               0:12:32.793     0:01:51.569     21,250 kbps     33,026 kbps     00:12:35.129    27,984 kbps     00:12:34.044    26,154 kbps     00:12:34.170    110,786 bytes   418,290 bytes   00:14:24.363    
5               0:14:24.363     0:02:07.293     26,765 kbps     34,135 kbps     00:15:29.845    29,782 kbps     00:15:01.650    29,629 kbps     00:15:01.650    139,538 bytes   476,965 bytes   00:14:59.440    
6               0:16:31.657     0:02:49.252     18,078 kbps     30,039 kbps     00:16:33.701    25,747 kbps     00:16:32.241    22,659 kbps     00:16:32.324    94,250 bytes    460,839 bytes   00:16:44.586    
7               0:19:20.909     0:03:58.237     20,485 kbps     33,114 kbps     00:22:01.236    30,125 kbps     00:21:57.733    28,666 kbps     00:21:56.398    106,800 bytes   557,288 bytes   00:23:18.605    
8               0:23:19.147     0:02:50.837     18,885 kbps     31,724 kbps     00:25:18.266    27,815 kbps     00:23:20.315    25,020 kbps     00:23:19.940    98,457 bytes    330,613 bytes   00:25:25.941    
9               0:26:09.985     0:02:15.760     21,013 kbps     33,026 kbps     00:28:05.183    29,932 kbps     00:26:44.144    29,295 kbps     00:26:39.139    109,554 bytes   532,248 bytes   00:26:56.823    
10              0:28:25.745     0:03:16.362     17,660 kbps     28,381 kbps     00:29:50.955    25,186 kbps     00:29:46.951    22,043 kbps     00:30:10.266    92,072 bytes    364,390 bytes   00:28:44.764    
11              0:31:42.108     0:09:18.724     21,177 kbps     33,718 kbps     00:38:43.154    31,316 kbps     00:38:43.321    30,583 kbps     00:40:37.184    110,409 bytes   599,562 bytes   00:39:12.892    
12              0:41:00.833     0:05:36.586     25,965 kbps     33,188 kbps     00:42:44.144    30,475 kbps     00:41:51.008    29,788 kbps     00:41:49.798    135,368 bytes   532,071 bytes   00:43:59.470    
13              0:46:37.419     0:02:45.540     27,001 kbps     32,538 kbps     00:47:37.354    30,722 kbps     00:47:40.816    30,066 kbps     00:47:37.354    140,773 bytes   423,224 bytes   00:48:42.961    
14              0:49:22.960     0:03:22.535     28,129 kbps     32,586 kbps     00:49:39.142    30,053 kbps     00:51:06.605    29,678 kbps     00:51:02.851    146,652 bytes   398,788 bytes   00:51:12.861    
15              0:52:45.495     0:03:35.673     25,714 kbps     32,094 kbps     00:55:16.146    29,349 kbps     00:55:33.413    28,737 kbps     00:53:45.764    134,060 bytes   430,517 bytes   00:54:20.924    
16              0:56:21.169     0:04:57.922     25,696 kbps     32,888 kbps     01:00:29.042    29,904 kbps     00:56:55.912    28,684 kbps     00:56:50.740    133,966 bytes   408,435 bytes   01:00:13.109    
17              1:01:19.092     0:03:42.972     20,954 kbps     32,609 kbps     01:02:10.268    28,250 kbps     01:02:10.560    27,102 kbps     01:02:05.555    109,247 bytes   530,107 bytes   01:02:24.282    
18              1:05:02.064     0:02:37.365     23,016 kbps     33,305 kbps     01:05:29.091    30,032 kbps     01:05:18.539    28,659 kbps     01:06:24.814    119,994 bytes   406,028 bytes   01:07:19.201    
19              1:07:39.430     0:07:31.451     24,233 kbps     33,538 kbps     01:12:46.904    30,047 kbps     01:12:48.572    29,121 kbps     01:12:44.902    126,341 bytes   467,032 bytes   01:13:38.872    
20              1:15:10.881     0:04:22.053     23,475 kbps     33,906 kbps     01:17:29.811    30,132 kbps     01:17:26.767    28,417 kbps     01:17:09.166    122,388 bytes   412,637 bytes   01:17:22.137    
21              1:19:32.934     0:06:13.206     22,362 kbps     33,026 kbps     01:19:38.315    28,189 kbps     01:21:01.898    26,321 kbps     01:22:26.650    116,585 bytes   418,326 bytes   01:24:47.582    
22              1:25:46.141     0:02:51.462     18,665 kbps     32,525 kbps     01:25:59.654    27,975 kbps     01:25:56.025    23,233 kbps     01:26:13.251    97,312 bytes    363,110 bytes   01:25:46.891    
23              1:28:37.603     0:06:29.514     23,369 kbps     33,441 kbps     01:29:42.877    30,172 kbps     01:30:42.770    29,478 kbps     01:33:22.805    121,833 bytes   535,486 bytes   01:31:56.093    
24              1:35:07.118     0:05:52.060     23,598 kbps     32,496 kbps     01:39:16.575    29,705 kbps     01:37:30.135    29,575 kbps     01:37:24.213    123,029 bytes   390,954 bytes   01:39:17.534    
25              1:40:59.178     0:08:08.196     20,844 kbps     32,971 kbps     01:46:34.304    27,414 kbps     01:47:11.967    26,482 kbps     01:41:40.636    108,670 bytes   383,557 bytes   01:44:00.692    
26              1:49:07.374     0:04:31.104     21,630 kbps     33,143 kbps     01:52:18.857    27,931 kbps     01:51:45.281    26,129 kbps     01:51:44.072    112,769 bytes   558,775 bytes   01:50:46.056    
27              1:53:38.478     0:03:48.311     22,652 kbps     31,565 kbps     01:57:25.455    28,829 kbps     01:55:05.815    28,228 kbps     01:55:05.440    118,097 bytes   621,326 bytes   01:57:25.663    
28              1:57:26.789     0:08:46.734     10,480 kbps     31,637 kbps     02:05:21.680    20,958 kbps     02:05:36.904    20,590 kbps     02:05:31.899    54,645 bytes    329,243 bytes   02:05:47.665    

STREAM DIAGNOSTICS:

File            PID             Type            Codec           Language                Seconds                 Bitrate                 Bytes           Packets         
----            ---             ----            -----           --------                --------------          --------------          -------------   -----           
00007.M2TS      4113 (0x1011)   0x1B            AVC                                     7573.441                21,845                  20,680,230,961  112,498,755     
00007.M2TS      4352 (0x1100)   0x86            DTS-HD MA       fra (French)            7573.441                4,003                   3,789,505,636   21,777,012      
00007.M2TS      4353 (0x1101)   0x86            DTS-HD MA       eng (English)           7573.441                3,924                   3,714,862,160   21,368,823      
00007.M2TS      4608 (0x1200)   0x90            PGS             fra (French)            7573.441                24                      22,985,986      134,101         
00007.M2TS      4609 (0x1201)   0x90            PGS             fra (French)            7573.441                23                      21,587,513      126,558         
00007.M2TS      4610 (0x1202)   0x90            PGS             fra (French)            7573.441                1                       478,145         2,872           
00007.M2TS      4611 (0x1203)   0x90            PGS             fra (French)            7573.441                0                       70              7               
Reviews: BluRayenFrancais.com
Screenshots:

image host image host image host image host image host image host ____________________________________________________________________
I have a tough time coming down on these transfers. The USA, Germany, and France transfers both look great and the differences are startlingly small. They both pick up on a good amount of grain while leaving the film looking crisp. The Spanish transfer is markedly darker. At first this is a bit pleasing to the eyes but the blacks get crushed in dark scenes such as the cave scene. Furthermore the picture looks a bit over sharpened. Only because of the hard coded subtitles issue will I stay away from the German version.  Between the French and American versions it comes down to whether you prefer DTS-HD MA or Dolby TrueHD.
Note* There is now a 2 disc edition of Iron Man available using the same transfer as the USA one. Also- the UK version is contains the same video as the USA version.